(Italo-Disco) VA - Disco Magia - 1984, FLAC (image+.cue), lossless - Скачать

Жанр: Italo-Disco
Год выпуска диска: 1984
Производитель диска: Италия
Аудио кодек: FLAC
Тип рипа: image+.cue
Битрейт: lossless
Продолжительность: 45:18
Трэклист:
D. Light* Scratch Your Face
Mike Francis Survivor
Paul Paul Good Times
Rose (2) Magic Carillon
Monieri Coming Up
George Aaron She's A Devil
Mark Tower* You Aren't Fall In Love
L.A. Messina Day Dream
E.T. 84 Hello Somebody
Webo Magic Moment
D.J. Division* Din Da Da
Philadelphia T.S.O.P.
Доп. информация: Легендарный нон стоп DJ микс.

pop, музыка, pop-music, композиции, трек, альбом, mp3, поп, lossless, высокое качество, бесплатно, поп-музыка, cd, скачать, torrent, альбом, торрент, soundtrack, download, дискография, песни

Exact Audio Copy V0.99 prebeta 4 from 23. January 2008
Отчёт EAC об извлечении, выполненном 28. сентября 2008, 19:05
Various / Disco Magia
Дисковод: _NEC DVD_RW ND-4571A Adapter: 2 ID: 0
Режим чтения : Достоверность
Использование точного потока : Да
Отключение кэша аудио : Да
Использование указателей C2 : Нет
Коррекция смещения при чтении : 48
Способность читать области Lead-in и Lead-out : Нет
Заполнение пропущенных сэмплов тишиной : Да
Удаление блоков с тишиной в начале и конце : Нет
При вычислениях CRC использовались нулевые сэмплы : Да
Интерфейс : Установленный внешний ASPI-интерфейс
Выходной формат : Пользовательский кодировщик
Выбранный битрейт : 768 kBit/s
Качество : Высокий
Добавление ID3-тэга : Да
Утилита сжатия : C:\Program Files\Exact Audio Copy\FLAC\FLAC.EXE
Дополнительные параметры : -6 -V -T "ARTIST=%a" -T "TITLE=%t" -T "ALBUM=%g" -T "DATE=%y" -T "TRACKNUMBER=%n" -T "GENRE=%m" -T "COMMENT=%e" %s -o %d
Смещение при сжатии : 0
TOC извлечённого CD
Трек | Старт | Длительность | Начальный сектор | Конечный сектор
---------------------------------------------------------------------
1 | 0:00.00 | 4:02.13 | 0 | 18162
2 | 4:02.13 | 2:56.35 | 18163 | 31397
3 | 6:58.48 | 3:29.08 | 31398 | 47080
4 | 10:27.56 | 3:20.29 | 47081 | 62109
5 | 13:48.10 | 3:30.62 | 62110 | 77921
6 | 17:18.72 | 4:56.33 | 77922 | 100154
7 | 22:15.30 | 3:07.46 | 100155 | 114225
8 | 25:23.01 | 3:12.33 | 114226 | 128658
9 | 28:35.34 | 5:05.08 | 128659 | 151541
10 | 33:40.42 | 4:10.65 | 151542 | 170356
11 | 37:51.32 | 3:45.17 | 170357 | 187248
12 | 41:36.49 | 3:42.04 | 187249 | 203902
Характеристики диапазона извлечения и сообщения об ошибках
Выбранный диапазон
Имя файла C:\BitComet\Downloads\Disco Magia\Various - Disco Magia.wav
Пиковый уровень 100.0 %
Качество диапазона 100.0 %
CRC теста 6EC56BC9
CRC копии 6EC56BC9
Копирование... OK
Ошибок не произошло
Конец отчёта

[305.9 MB] Скачать / Download