(Italo-Disco) VA - I Love Mixes Vol.3 (Studio 54 Connection) - 2003, APE (image+.cue), lossless - Скачать

- I Love Mixes Vol.3 (Studio 54 Connection)
Жанр:Italo-Disco
Год выпуска диска:2003
Производитель диска:Spain
Аудио кодек:APE
Тип рипа:image+.cue
Битрейт аудио:lossless
Продолжительность:41:45
Трэклист:

- A - Connection

01. Indeep - Last Night A D.J. Saved My Life 4:35
02. Dharma - Plastic Doll 3:40
03. Capricorn - I Need Love 3:39
04. Silvy Foster - Hookey 3:09
05. Joe Yellow - Lover To Lover 4:11


- B - Connection

01. Indeep - Last Night A D.J. Saved My Life 3:50
02. Capricorn - I Need Love 3:37
03. Joe Yellow - Lover To Lover 6:13
04. Jules Tropicana - Come On 3:58
05. Bob Salton - Starknight 4:50

Доп.информация:
Абсолютно все рипы сделаны с оригинальных CD из моей коллекции !!!
Полные сканы обложек и дисков прилагаются !!!
Blanco y Negro Music

дискография, скачать, бесплатно, высокое качество, soundtrack, cd, песни, lossless, pop, альбом, download, поп, torrent, торрент, музыка, mp3, альбом, трек, поп-музыка, pop-music, композиции

Обратите внимание !!!
Материал выложен ИСКЛЮЧИТЕЛЬНО для ознакомления, так что не забудьте, пожалуйста,
удалить его с жёсткого диска после ознакомления, пойти в магазин и купить оригинальное издание !!!
Back
Отчет EAC
Exact Audio Copy V0.99 prebeta 4 from 23. January 2008
Отчёт EAC об извлечении, выполненном 31. июля 2009, 22:51
Various / I Love Mixes Vol.3 ''Studio 54 Connection'' 1983
Дисковод: Optiarc DVD RW AD-5200A Adapter: 0 ID: 0
Режим чтения : Достоверность
Использование точного потока : Да
Отключение кэша аудио : Да
Использование указателей C2 : Нет
Коррекция смещения при чтении : 48
Способность читать области Lead-in и Lead-out : Нет
Заполнение пропущенных сэмплов тишиной : Да
Удаление блоков с тишиной в начале и конце : Нет
При вычислениях CRC использовались нулевые сэмплы : Да
Интерфейс : Установленный внешний ASPI-интерфейс
Выходной формат : Внутренние WAV-операции
Формат сэмплов : 44.100 Гц; 16 бит; стерео
TOC извлечённого CD
Трек | Старт | Длительность | Начальный сектор | Конечный сектор
---------------------------------------------------------------------
1 | 0:00.00 | 4:35.31 | 0 | 20655
2 | 4:35.31 | 3:40.20 | 20656 | 37175
3 | 8:15.51 | 3:39.26 | 37176 | 53626
4 | 11:55.02 | 3:09.38 | 53627 | 67839
5 | 15:04.40 | 4:11.01 | 67840 | 86665
6 | 19:15.41 | 3:50.25 | 86666 | 103940
7 | 23:05.66 | 3:37.66 | 103941 | 120281
8 | 26:43.57 | 6:13.40 | 120282 | 148296
9 | 32:57.22 | 3:58.06 | 148297 | 166152
10 | 36:55.28 | 4:50.55 | 166153 | 187957
Характеристики диапазона извлечения и сообщения об ошибках
Выбранный диапазон
Имя файла E:\Torrents.Ru - Projects\0 Various - I Love Mixes Vol.2,3\Various - I Love Mixes Vol.2,3\Various - I Love Mixes Vol.3 ''Studio 54 Connection'' 1983\Various - I Love Mixes Vol.3 ''Studio 54 Connection'' 1983.wav
Пиковый уровень 100.0 %
Качество диапазона 99.9 %
CRC теста 67650ACC
CRC копии 67650ACC
Копирование... OK
Ошибок не произошло
AccurateRip: сводка
Трек 1 нет в базе данных
Трек 2 нет в базе данных
Трек 3 нет в базе данных
Трек 4 нет в базе данных
Трек 5 нет в базе данных
Трек 6 нет в базе данных
Трек 7 нет в базе данных
Трек 8 нет в базе данных
Трек 9 нет в базе данных
Трек 10 нет в базе данных
Ни одного трека нет в базе AccurateRip
Конец отчёта
Материал выложен ИСКЛЮЧИТЕЛЬНО для ознакомления, так что не забудьте, пожалуйста,
удалить его с жёсткого диска после ознакомления, пойти в магазин и купить оригинальное издание !!!
Exact Audio Copy V0.99 prebeta 4 from 23. January 2008
Отчёт EAC об извлечении, выполненном 31. июля 2009, 22:51
Various / I Love Mixes Vol.3 ''Studio 54 Connection'' 1983
Дисковод: Optiarc DVD RW AD-5200A Adapter: 0 ID: 0
Режим чтения : Достоверность
Использование точного потока : Да
Отключение кэша аудио : Да
Использование указателей C2 : Нет
Коррекция смещения при чтении : 48
Способность читать области Lead-in и Lead-out : Нет
Заполнение пропущенных сэмплов тишиной : Да
Удаление блоков с тишиной в начале и конце : Нет
При вычислениях CRC использовались нулевые сэмплы : Да
Интерфейс : Установленный внешний ASPI-интерфейс
Выходной формат : Внутренние WAV-операции
Формат сэмплов : 44.100 Гц; 16 бит; стерео
TOC извлечённого CD
Трек | Старт | Длительность | Начальный сектор | Конечный сектор
---------------------------------------------------------------------
1 | 0:00.00 | 4:35.31 | 0 | 20655
2 | 4:35.31 | 3:40.20 | 20656 | 37175
3 | 8:15.51 | 3:39.26 | 37176 | 53626
4 | 11:55.02 | 3:09.38 | 53627 | 67839
5 | 15:04.40 | 4:11.01 | 67840 | 86665
6 | 19:15.41 | 3:50.25 | 86666 | 103940
7 | 23:05.66 | 3:37.66 | 103941 | 120281
8 | 26:43.57 | 6:13.40 | 120282 | 148296
9 | 32:57.22 | 3:58.06 | 148297 | 166152
10 | 36:55.28 | 4:50.55 | 166153 | 187957
Характеристики диапазона извлечения и сообщения об ошибках
Выбранный диапазон
Имя файла E:\Torrents.Ru - Projects\0 Various - I Love Mixes Vol.2,3\Various - I Love Mixes Vol.2,3\Various - I Love Mixes Vol.3 ''Studio 54 Connection'' 1983\Various - I Love Mixes Vol.3 ''Studio 54 Connection'' 1983.wav
Пиковый уровень 100.0 %
Качество диапазона 99.9 %
CRC теста 67650ACC
CRC копии 67650ACC
Копирование... OK
Ошибок не произошло
AccurateRip: сводка
Трек 1 нет в базе данных
Трек 2 нет в базе данных
Трек 3 нет в базе данных
Трек 4 нет в базе данных
Трек 5 нет в базе данных
Трек 6 нет в базе данных
Трек 7 нет в базе данных
Трек 8 нет в базе данных
Трек 9 нет в базе данных
Трек 10 нет в базе данных
Ни одного трека нет в базе AccurateRip
Конец отчёта

[325.9 MB] Скачать / Download