(Italo-Disco) VA - The Best Of Italo Disco Vol.1 - Vol.11 + Vol.13 (LP-versions, 23CDs) - 1983-1989, FLAC (image+.cue), lossless - Скачать

Жанр: Italo Disco
Год выпуска LPs: 1983-1989
Производитель LPs: ZYX Records, Germany
Аудио кодек: FLAC
Тип рипа: image+.cue
Битрейт аудио: lossless
Продолжительность: 19:42:22
Трэклист:Доп. информация:
Рип болванок в режиме Test & Copy.
Сканы конвертов прилагаются (для 1, 3, 4 взяты с дискогс).

торрент, дискография, скачать, альбом, download, музыка, альбом, lossless, высокое качество, torrent, cd, pop-music, композиции, mp3, песни, бесплатно, soundtrack, поп-музыка, трек, pop, поп

(78:38)
01. Flowchart / Ask The Boss (Remix Version) [0:05:07.26]
02. Funk Machine / Dance On The Groove (And Do The Funk) [0:08:02.20]
03. Advance / Take Me To The Top [0:06:16.32]
04. Steel Mind / Bad Passion [0:06:55.29]
05. Amin Peck / Girl On Me [0:07:00.10]
06. Flowchart / Ask The Boss [0:06:20.36]
07. Mito / Droid [0:05:01.31]
08. Amin Peck / Coda [0:05:06.10]
09. Bob Salton / Starknight [0:07:03.29]
10. Steel Mind / Bad Passion (Instrumental) [0:06:43.12]
11. Amin Peck / Anxiety [0:07:56.17]
12. Bob Salton / Starknight (Instrumental) [0:07:05.61]
CD1 (56:14)
01. Scotch / Disco Band (Vocal) [0:05:05.37]
02. Chris Luis / The Heart Of The City (Vocal) [0:07:08.14]
03. Baby's Gang / Happy Song [0:05:35.66]
04. Tullio De Piscopo / Primavera (Stop Bajon) [0:07:12.12]
05. Flexi Cowboys / Sexy Movie [0:06:25.36]
06. Cyber People / Polaris [0:05:38.30]
07. Answering Service / Call Me Mr. Telephone (Vocal) [0:06:35.15]
08. Brian Martin / Sex Tonight (Vocal) [0:05:12.28]
09. Miko Mission / How Old Are You? (Vocal) [0:07:21.38]
CD2 (62:26)
01. Dust Man / King Of The Chetto [0:06:37.51]
02. Savage / Don't Cry Tonight [0:06:46.35]
03. Fake / Frogs In Spain [0:06:11.17]
04. Paul Sharada / Florida (Move Your Feet) [0:07:30.37]
05. Valerie Dore / The Night (Vocal) [0:05:50.20]
06. Ranko / Happy World (Vocal) [0:07:41.32]
07. Ken Laszlo / Hey Hey Guy (Vocal) [0:07:40.30]
08. Duke Lake / Satisfaction, Love And Passion [0:07:35.31]
09. Scotch / Penguin's Invasion [0:06:33.13]
CD1 (39:41)
01. Baby's Gang / Challenger [0:05:17.66]
02. Miko Mission / The World Is You [0:07:50.19]
03. Charlie / Space Woman [0:07:30.52]
04. Mike Rogers / Just A Story [0:06:21.71]
05. G.J. Lunghi / Acapulco Nights [0:06:29.22]
06. Time / Love Is The Reason [0:06:11.18]
CD2 (45:10)
01. Valerie Dore / Get Closer [0:06:12.31]
02. Silver Pozzoli / Around My Dream [0:05:37.58]
03. Cruisin' Gang / Chinatown [0:06:03.68]
04. Savage / A Love Again (Remix) [0:06:30.42]
05. Max-Him / Lady Fantasy [0:06:19.46]
06. Raggio Di Luna (Moon Ray) / Comanchero (Special-Disco-Remix) [0:08:15.58]
07. Scotch / Take Me Up (Long Remix Version) [0:06:10.39]
CD1 (49:27)
01. Betty Miranda / Dance [0:06:20.08]
02. Max-Him / Lady Fantasy (Remix) [0:06:34.64]
03. Koto / Visitors [0:06:22.45]
04. Camaro's Gang / Fuerza Major [0:05:40.04]
05. Jonathan Gable / Central Park (Dub Mix) [0:05:45.50]
06. Katy Gray / Hold Me Tight [0:05:58.59]
07. Flexy Cowboys / Domination (Extended Version) [0:05:40.33]
08. Amanda Lear / No Credit Card [0:07:05.07]
CD2 (51:06)
01. Hugh Bullen / Alisand [0:05:33.24]
02. Cruisin' Gang Feat. Laura Fadinger / On The Beach Tonight [0:06:01.48]
03. Plastic Mode / Baja Imperial [0:08:58.03]
04. Hivoh / To Be Together (Extended Version) [0:05:12.09]
05. Plastic Mode / Mi Amor [0:05:58.71]
06. Digital Game / Please Don't Go [0:07:11.58]
07. Duke Lake / Dance Tonight [0:06:14.55]
08. Kirlian Camera / Blue Room (Extended Version) [0:05:55.61]
CD1 (50:20)
01. Solid Strangers / My Delight [0:06:14.31]
02. Jimmy & Susy / Come Back [0:06:05.02]
03. Max-Him / Japanese Girl [0:06:00.16]
04. Cruisin' Gang / America [0:07:30.01]
05. Koto / Visitors (Vocal Remix) [0:06:16.10]
06. David Lyme / Let's Go To Sitges [0:04:45.60]
07. Roger Mano / I Find The Way [0:06:46.32]
08. Peter Richard / Walking In The Neon [0:06:42.00]
CD2 (55:16)
01. Rudy & Co / Mama Radio [0:05:50.31]
02. Grant Miller / Colder Than Ice [0:05:36.54]
03. Ken Laszlo / Tonight [0:05:48.61]
04. Midnight Passion / I Need Your Love [0:06:34.30]
05. Brian Ice / Talking To The Night [0:05:52.02]
06. Rex Abe / I Can Feel It [0:06:44.24]
07. Moonshine / China [0:07:00.69]
08. Miko Mission / Two For Love (Mozzart Mix) [0:05:11.35]
Bonus track from second version of the compilation
09. Lian Ross / Say You'll Never [0:06:36.69]
CD1 (51:42)
01. Scotch / Mirage [0:04:57.47]
02. Primadonna / Angel You (Club Mix) [0:06:43.50]
03. Cyber People / Doctor Faustu's [0:07:01.30]
04. Laserdance / Humanoid Invasion (Dance Mix) [0:07:12.16]
05. Patty Ryan / (You're) My Love, (You're) My Life [0:07:14.44]
06. Pino D'Angio / E'Libero Scusi? [0:04:46.02]
07. P. Lion / Under The Moon [0:07:03.17]
08. P4F / Medley ('P. Machinery - Relax') [0:06:43.26]
CD2 (47:55)
01. Linda Jo Rizzo / You're My First, You're My Last [0:05:43.20]
02. Max Him / Danger-Danger [0:06:38.50]
03. Silver Pozzoli / From You To Me [0:06:15.17]
04. HBO / Come With Me (Disco Mix) [0:05:44.12]
05. Alan Barry / Come On [0:04:57.65]
06. Public Passion / Flash In The Night [0:06:30.34]
07. Joe Yellow / I'm Your Lover [0:05:29.45]
08. Fabian Nesti / Heigh Ho [0:06:35.74]
CD1 (47:21)
01. Mike Mareen / Love Spy (The Badman Mix) [0:06:24.74]
02. Ken Laszlo / Don't Cry (Vocal) [0:05:37.13]
03. K.B. Caps / Do You Really Need Me [0:06:35.65]
04. Grant Miller / Doctor For My Heart [0:05:23.33]
05. Eddy Huntington / U.S.S.R. [0:05:57.44]
06. Hot Cold / I Can Hear Your Voice [0:05:35.66]
07. Jules / You And Me [0:06:09.37]
08. J.D. Jaber / Don't Wake Me Up (Another Mix) [0:05:37.28]
CD2 (46:35)
01. Roger Meno / What My Heart Wanna Say [0:06:06.24]
02. Michael Bedford / More Than A Kiss [0:06:05.58]
03. Paul Sharada / Boxers [0:06:55.34]
04. Max Coveri / One More Time [0:05:07.14]
05. Sabrina / Sexy Girl (Long Version) [0:05:08.49]
06. Squash Gang / I Want An Illusion [0:06:10.00]
07. Albert One / Secrets (Extended Version) [0:05:18.70]
08. Patty Ryan / Stay With Me Tonight [0:05:43.07]
CD1 (53:36)
01. Solo / Harem [0:05:36.04]
02. Linda Jo Rizzo / Heartflash (Tonight) [0:05:57.61]
03. Silver Pozzoli / Pretty Baby [0:05:55.15]
04. Mike Mareen / Agent Of Liberty [0:08:43.59]
05. Albert One / For Your Love [0:05:49.24]
06. The Nasty Boys / I Was Made For Loving You [0:07:37.05]
07. T.Ark / Count On Me [0:06:25.74]
08. Koto / Jabdah [0:07:31.50]
CD2 (52:18)
01. Cleo / Go Go Dynamo [0:06:01.62]
02. Swan / General Custer [0:07:01.30]
03. Attack / Can't Stop [0:06:58.41]
04. Joe Yellow / Love At First [0:06:03.34]
05. Laserdance / Power Run [0:05:42.31]
06. Kinky Go / Gimme The Love [0:07:04.46]
07. Scotch / Money Runner [0:06:15.38]
08. P4F / Diamond [0:07:10.56]
CD1 (48:04)
01. Spagna / Call Me [0:06:05.35]
02. Interface / Plastic Age [0:06:47.35]
03. Eddy Huntington / Meet My Friend [0:05:34.45]
04. Morgana / Ready For Love [0:07:28.10]
05. Michael Bedford / Tonight [0:05:11.32]
06. Italian Boys / Forever Lovers [0:06:00.15]
07. Miko Mission / Toc Toc Toc [0:05:03.18]
08. Scotch / Pictures [0:05:54.07]
CD2 (49:37)
01. Den Harrow / Don't Break My Heart [0:03:52.66]
02. Ken Laszlo / 1,2,3,4,5,6,7,8 [0:05:20.34]
03. Vivien Vee / Heartbeat [0:06:56.33]
04. Albert One / Hopes & Dreams [0:08:35.45]
05. The Midnight's Moscow / Tovarisc Gorbaciov [0:06:46.17]
06. Mozzart / Money [0:05:53.39]
07. Silver Pozzoli / Chica Boom [0:05:20.62]
08. U.K. / Roadrunner [0:06:51.69]
CD1 (50:24)
01. Scotch / Man To Man [0:05:19.10]
02. Linda Jo Rizzo / Perfect Lover [0:06:09.52]
03. Chester / Hold The Line [0:05:50.20]
04. Chip Chip / So Close To Heaven [0:07:35.13]
05. Ken Laszlo / Glasses Man [0:06:05.33]
06. Laserdance / Fear [0:06:50.46]
07. 50 & 50 Brothers / Red Man [0:06:20.46]
08. T. Ark / Under Cover Lover [0:06:13.08]
CD2 (48:08)
01. Sandy Marton / Love Synchronicity [0:06:21.65]
02. Funny Twins / You And Me [0:05:41.41]
03. Hipnosis / Droid [0:05:49.30]
04. S 50 / Input (Remix) [0:06:31.37]
05. Sabrina / Sexy Girl (Remix) [0:05:41.46]
06. Mr. Me / I-Go-Down (Sa Sa Sa) [0:06:49.41]
07. Del Faro / Pandiera La Playa Del Sol [0:05:06.69]
08. Mr. Zivago / Little Russian [0:06:05.62]
CD1 (51:28)
01. Koto / Dragon's Legend [0:06:59.37]
02. Fun Fun / Mega Hit Mix [0:09:08.46]
03. Eddy Huntington / May Day [0:04:36.00]
04. Francesco Napoli / Balla Balla Vol.2 [0:05:52.33]
05. Laserdance / Shotgun (Into The Night) [0:08:35.10]
06. David Lyme / Never Say You Love Me [0:05:44.63]
07. Macho Gang / Naughty Boy [0:05:32.48]
08. Nino D'Angelo / Napoli Napoli [0:04:59.48]
CD2 (49:56)
01. Vanilla / Bamboleo [0:06:59.45]
02. Mozzart / Jasmin China Girl [0:06:32.67]
03. Denise & Baby's Gang / Disco Maniac [0:05:54.14]
04. Green Olives / Jive Into The Night [0:06:24.36]
05. Mike Hazzard / Stop Me Baby [0:05:53.40]
06. Hot & Cold / Don't Talk About It [0:06:25.50]
07. Hildelgard / De Nuevo Tu [0:05:27.65]
08. Yagmur / Ali Baba [0:06:17.60]
CD1 (49:20)
01. Joe Yellow / Wild Boy [0:06:08.36]
02. Sophie / My World [0:06:09.30]
03. Francesco Salvi / Esatto! [0:05:37.01]
04. King Kong & D'Jungle Girls / Boom Boom Dollar [0:05:59.73]
05. Clio & Kay / Keep On Dancing [0:05:49.45]
06. Ken Laszlo / Madame [0:07:38.18]
07. Eddy Huntington / Physical Attraction [0:05:03.16]
08. 50 & 50 Brothers / Do The Crocodile [0:06:54.20]
CD2 (47:40)
01. Moulin Rouge / The Megamix [0:09:37.00]
02. Kinky Go / You, You, You [0:05:30.58]
03. Rocco Granata & The Carnations / Marina (Remix '89) [0:04:14.20]
04. Danuta / Whenever You Go [0:07:08.66]
05. Miko Mission / How Old Are You? (Remix '89) [0:04:58.02]
06. Linda Jo Rizzo / Keep Trying (Remix '89) [0:05:04.63]
07. D.F.C. Team / I.C. Love Affair [0:05:09.50]
08. Comanchero / Comanchero [0:05:57.20]
The Best Of Italo Disco
 Exact Audio Copy V0.99 prebeta 5 from 4. May 2009
Отчёт EAC об извлечении, выполненном 6. февраля 2010, 15:27
Various / The Best Of Italo Disco
Дисковод: HL-DT-STDVD-RAM GH22NS30 Adapter: 2 ID: 0
Режим чтения : Достоверность
Использование точного потока : Да
Отключение кэша аудио : Да
Использование указателей C2 : Нет
Коррекция смещения при чтении : 102
Способность читать области Lead-in и Lead-out : Нет
Заполнение пропущенных сэмплов тишиной : Да
Удаление блоков с тишиной в начале и конце : Нет
При вычислениях CRC использовались нулевые сэмплы : Да
Интерфейс : Установленный внешний ASPI-интерфейс
Выходной формат : Внутренние WAV-операции
Формат сэмплов : 44.100 Гц; 16 бит; стерео
Смещение при сжатии : 0
TOC извлечённого CD
Трек | Старт | Длительность | Начальный сектор | Конечный сектор
---------------------------------------------------------------------
1 | 0:00.00 | 5:07.26 | 0 | 23050
2 | 5:07.26 | 8:02.20 | 23051 | 59220
3 | 13:09.46 | 6:16.32 | 59221 | 87452
4 | 19:26.03 | 6:55.29 | 87453 | 118606
5 | 26:21.32 | 7:00.10 | 118607 | 150116
6 | 33:21.42 | 6:20.36 | 150117 | 178652
7 | 39:42.03 | 5:01.31 | 178653 | 201258
8 | 44:43.34 | 5:06.10 | 201259 | 224218
9 | 49:49.44 | 7:03.29 | 224219 | 255972
10 | 56:52.73 | 6:43.12 | 255973 | 286209
11 | 63:36.10 | 7:56.17 | 286210 | 321926
12 | 71:32.27 | 7:05.61 | 321927 | 353862
Характеристики диапазона извлечения и сообщения об ошибках
Выбранный диапазон
Имя файла C:\Downloads\Various - The Best Of Italo Disco\The Best Of Italo Disco\Various - The Best Of Italo Disco.wav
Пиковый уровень 100.0 %
Качество диапазона 100.0 %
CRC теста 0B36D5CA
CRC копии 0B36D5CA
Копирование... OK
Ошибок не произошло
AccurateRip: сводка
Трек 1 нет в базе данных
Трек 2 нет в базе данных
Трек 3 нет в базе данных
Трек 4 нет в базе данных
Трек 5 нет в базе данных
Трек 6 нет в базе данных
Трек 7 нет в базе данных
Трек 8 нет в базе данных
Трек 9 нет в базе данных
Трек 10 нет в базе данных
Трек 11 нет в базе данных
Трек 12 нет в базе данных
Ни одного трека нет в базе AccurateRip
Конец отчёта
The Best Of Italo Disco Vol.2 CD1
 Exact Audio Copy V0.99 prebeta 5 from 4. May 2009
Отчёт EAC об извлечении, выполненном 6. февраля 2010, 0:00
Various / The Best Of Italo Disco Vol.2 CD1
Дисковод: HL-DT-STDVD-RAM GH22NS30 Adapter: 2 ID: 0
Режим чтения : Достоверность
Использование точного потока : Да
Отключение кэша аудио : Да
Использование указателей C2 : Нет
Коррекция смещения при чтении : 102
Способность читать области Lead-in и Lead-out : Нет
Заполнение пропущенных сэмплов тишиной : Да
Удаление блоков с тишиной в начале и конце : Нет
При вычислениях CRC использовались нулевые сэмплы : Да
Интерфейс : Установленный внешний ASPI-интерфейс
Выходной формат : Внутренние WAV-операции
Формат сэмплов : 44.100 Гц; 16 бит; стерео
Смещение при сжатии : 0
TOC извлечённого CD
Трек | Старт | Длительность | Начальный сектор | Конечный сектор
---------------------------------------------------------------------
1 | 0:00.01 | 5:05.37 | 1 | 22912
2 | 5:05.38 | 7:08.14 | 22913 | 55026
3 | 12:13.52 | 5:35.66 | 55027 | 80217
4 | 17:49.43 | 7:12.12 | 80218 | 112629
5 | 25:01.55 | 6:25.36 | 112630 | 141540
6 | 31:27.16 | 5:38.30 | 141541 | 166920
7 | 37:05.46 | 6:35.15 | 166921 | 196560
8 | 43:40.61 | 5:12.28 | 196561 | 219988
9 | 48:53.14 | 7:21.38 | 219989 | 253101
Характеристики диапазона извлечения и сообщения об ошибках
Выбранный диапазон
Имя файла C:\Downloads\Various - The Best Of Italo Disco\The Best Of Italo Disco, Vol.2\Various - The Best Of Italo Disco Vol.2 CD1.wav
Пиковый уровень 100.0 %
Качество диапазона 100.0 %
CRC теста 63C7E086
CRC копии 63C7E086
Копирование... OK
Ошибок не произошло
AccurateRip: сводка
Трек 1 нет в базе данных
Трек 2 нет в базе данных
Трек 3 нет в базе данных
Трек 4 нет в базе данных
Трек 5 нет в базе данных
Трек 6 нет в базе данных
Трек 7 нет в базе данных
Трек 8 нет в базе данных
Трек 9 нет в базе данных
Ни одного трека нет в базе AccurateRip
Конец отчёта
The Best Of Italo Disco Vol.2 CD2
 Exact Audio Copy V0.99 prebeta 5 from 4. May 2009
Отчёт EAC об извлечении, выполненном 6. февраля 2010, 7:18
Various / The Best Of Italo Disco Vol.2 CD2
Дисковод: HL-DT-STDVD-RAM GH22NS30 Adapter: 2 ID: 0
Режим чтения : Достоверность
Использование точного потока : Да
Отключение кэша аудио : Да
Использование указателей C2 : Нет
Коррекция смещения при чтении : 102
Способность читать области Lead-in и Lead-out : Нет
Заполнение пропущенных сэмплов тишиной : Да
Удаление блоков с тишиной в начале и конце : Нет
При вычислениях CRC использовались нулевые сэмплы : Да
Интерфейс : Установленный внешний ASPI-интерфейс
Выходной формат : Внутренние WAV-операции
Формат сэмплов : 44.100 Гц; 16 бит; стерео
Смещение при сжатии : 0
TOC извлечённого CD
Трек | Старт | Длительность | Начальный сектор | Конечный сектор
---------------------------------------------------------------------
1 | 0:00.01 | 6:37.51 | 1 | 29826
2 | 6:37.52 | 6:46.35 | 29827 | 60311
3 | 13:24.12 | 6:11.17 | 60312 | 88153
4 | 19:35.29 | 7:30.37 | 88154 | 121940
5 | 27:05.66 | 5:50.20 | 121941 | 148210
6 | 32:56.11 | 7:41.32 | 148211 | 182817
7 | 40:37.43 | 7:40.30 | 182818 | 217347
8 | 48:17.73 | 7:35.31 | 217348 | 251503
9 | 55:53.29 | 6:33.13 | 251504 | 280991
Характеристики диапазона извлечения и сообщения об ошибках
Выбранный диапазон
Имя файла C:\Downloads\Various - The Best Of Italo Disco\The Best Of Italo Disco, Vol.2\Various - The Best Of Italo Disco Vol.2 CD2.wav
Пиковый уровень 100.0 %
Качество диапазона 100.0 %
CRC теста FBFE3ADD
CRC копии FBFE3ADD
Копирование... OK
Ошибок не произошло
AccurateRip: сводка
Трек 1 нет в базе данных
Трек 2 нет в базе данных
Трек 3 нет в базе данных
Трек 4 нет в базе данных
Трек 5 нет в базе данных
Трек 6 нет в базе данных
Трек 7 нет в базе данных
Трек 8 нет в базе данных
Трек 9 нет в базе данных
Ни одного трека нет в базе AccurateRip
Конец отчёта
The Best Of Italo Disco Vol.3 CD1
 Exact Audio Copy V0.99 prebeta 5 from 4. May 2009
Отчёт EAC об извлечении, выполненном 6. февраля 2010, 10:42
Various / The Best Of Italo Disco Vol.3 CD1
Дисковод: HL-DT-STDVD-RAM GH22NS30 Adapter: 2 ID: 0
Режим чтения : Достоверность
Использование точного потока : Да
Отключение кэша аудио : Да
Использование указателей C2 : Нет
Коррекция смещения при чтении : 102
Способность читать области Lead-in и Lead-out : Нет
Заполнение пропущенных сэмплов тишиной : Да
Удаление блоков с тишиной в начале и конце : Нет
При вычислениях CRC использовались нулевые сэмплы : Да
Интерфейс : Установленный внешний ASPI-интерфейс
Выходной формат : Внутренние WAV-операции
Формат сэмплов : 44.100 Гц; 16 бит; стерео
Смещение при сжатии : 0
TOC извлечённого CD
Трек | Старт | Длительность | Начальный сектор | Конечный сектор
---------------------------------------------------------------------
1 | 0:00.00 | 5:17.66 | 0 | 23840
2 | 5:17.66 | 7:50.19 | 23841 | 59109
3 | 13:08.10 | 7:30.52 | 59110 | 92911
4 | 20:38.62 | 6:21.71 | 92912 | 121557
5 | 27:00.58 | 6:29.22 | 121558 | 150754
6 | 33:30.05 | 6:11.18 | 150755 | 178597
Характеристики диапазона извлечения и сообщения об ошибках
Выбранный диапазон
Имя файла C:\Downloads\Various - The Best Of Italo Disco\The Best Of Italo Disco, Vol.3\Various - The Best Of Italo Disco Vol.3 CD1.wav
Пиковый уровень 100.0 %
Качество диапазона 100.0 %
CRC теста 23FECCEA
CRC копии 23FECCEA
Копирование... OK
Ошибок не произошло
AccurateRip: сводка
Трек 1 нет в базе данных
Трек 2 нет в базе данных
Трек 3 нет в базе данных
Трек 4 нет в базе данных
Трек 5 нет в базе данных
Трек 6 нет в базе данных
Ни одного трека нет в базе AccurateRip
Конец отчёта
The Best Of Italo Disco Vol.3 CD2
 Exact Audio Copy V0.99 prebeta 5 from 4. May 2009
Отчёт EAC об извлечении, выполненном 6. февраля 2010, 12:22
Various / The Best Of Italo Disco Vol.3 CD2
Дисковод: HL-DT-STDVD-RAM GH22NS30 Adapter: 2 ID: 0
Режим чтения : Достоверность
Использование точного потока : Да
Отключение кэша аудио : Да
Использование указателей C2 : Нет
Коррекция смещения при чтении : 102
Способность читать области Lead-in и Lead-out : Нет
Заполнение пропущенных сэмплов тишиной : Да
Удаление блоков с тишиной в начале и конце : Нет
При вычислениях CRC использовались нулевые сэмплы : Да
Интерфейс : Установленный внешний ASPI-интерфейс
Выходной формат : Внутренние WAV-операции
Формат сэмплов : 44.100 Гц; 16 бит; стерео
Смещение при сжатии : 0
TOC извлечённого CD
Трек | Старт | Длительность | Начальный сектор | Конечный сектор
---------------------------------------------------------------------
1 | 0:00.00 | 6:12.31 | 0 | 27930
2 | 6:12.31 | 5:37.58 | 27931 | 53263
3 | 11:50.14 | 6:03.68 | 53264 | 80556
4 | 17:54.07 | 6:30.42 | 80557 | 109848
5 | 24:24.49 | 6:19.46 | 109849 | 138319
6 | 30:44.20 | 8:15.58 | 138320 | 175502
7 | 39:00.03 | 6:10.39 | 175503 | 203291
Характеристики диапазона извлечения и сообщения об ошибках
Выбранный диапазон
Имя файла C:\Downloads\Various - The Best Of Italo Disco\The Best Of Italo Disco, Vol.3\Various - The Best Of Italo Disco Vol.3 CD2.wav
Пиковый уровень 100.0 %
Качество диапазона 100.0 %
CRC теста 82E0BB50
CRC копии 82E0BB50
Копирование... OK
Ошибок не произошло
AccurateRip: сводка
Трек 1 нет в базе данных
Трек 2 нет в базе данных
Трек 3 нет в базе данных
Трек 4 нет в базе данных
Трек 5 нет в базе данных
Трек 6 нет в базе данных
Трек 7 нет в базе данных
Ни одного трека нет в базе AccurateRip
Конец отчёта
The Best Of Italo Disco Vol.4 CD1
 Exact Audio Copy V0.99 prebeta 5 from 4. May 2009
Отчёт EAC об извлечении, выполненном 6. февраля 2010, 13:45
Various / The Best Of Italo Disco Vol.4 CD1
Дисковод: HL-DT-STDVD-RAM GH22NS30 Adapter: 2 ID: 0
Режим чтения : Достоверность
Использование точного потока : Да
Отключение кэша аудио : Да
Использование указателей C2 : Нет
Коррекция смещения при чтении : 102
Способность читать области Lead-in и Lead-out : Нет
Заполнение пропущенных сэмплов тишиной : Да
Удаление блоков с тишиной в начале и конце : Нет
При вычислениях CRC использовались нулевые сэмплы : Да
Интерфейс : Установленный внешний ASPI-интерфейс
Выходной формат : Внутренние WAV-операции
Формат сэмплов : 44.100 Гц; 16 бит; стерео
Смещение при сжатии : 0
TOC извлечённого CD
Трек | Старт | Длительность | Начальный сектор | Конечный сектор
---------------------------------------------------------------------
1 | 0:00.01 | 6:20.08 | 1 | 28508
2 | 6:20.09 | 6:34.64 | 28509 | 58122
3 | 12:54.73 | 6:22.45 | 58123 | 86817
4 | 19:17.43 | 5:40.04 | 86818 | 112321
5 | 24:57.47 | 5:45.50 | 112322 | 138246
6 | 30:43.22 | 5:58.59 | 138247 | 165155
7 | 36:42.06 | 5:40.33 | 165156 | 190688
8 | 42:22.39 | 7:05.07 | 190689 | 222570
Характеристики диапазона извлечения и сообщения об ошибках
Выбранный диапазон
Имя файла C:\Downloads\Various - The Best Of Italo Disco\The Best Of Italo Disco, Vol.4\Various - The Best Of Italo Disco Vol.4 CD1.wav
Пиковый уровень 100.0 %
Качество диапазона 100.0 %
CRC теста BDE8FF8F
CRC копии BDE8FF8F
Копирование... OK
Ошибок не произошло
AccurateRip: сводка
Трек 1 нет в базе данных
Трек 2 нет в базе данных
Трек 3 нет в базе данных
Трек 4 нет в базе данных
Трек 5 нет в базе данных
Трек 6 нет в базе данных
Трек 7 нет в базе данных
Трек 8 нет в базе данных
Ни одного трека нет в базе AccurateRip
Конец отчёта
The Best Of Italo Disco Vol.4 CD2
 Exact Audio Copy V0.99 prebeta 5 from 4. May 2009
Отчёт EAC об извлечении, выполненном 6. февраля 2010, 14:30
Various / The Best Of Italo Disco Vol.4 CD2
Дисковод: HL-DT-STDVD-RAM GH22NS30 Adapter: 2 ID: 0
Режим чтения : Достоверность
Использование точного потока : Да
Отключение кэша аудио : Да
Использование указателей C2 : Нет
Коррекция смещения при чтении : 102
Способность читать области Lead-in и Lead-out : Нет
Заполнение пропущенных сэмплов тишиной : Да
Удаление блоков с тишиной в начале и конце : Нет
При вычислениях CRC использовались нулевые сэмплы : Да
Интерфейс : Установленный внешний ASPI-интерфейс
Выходной формат : Внутренние WAV-операции
Формат сэмплов : 44.100 Гц; 16 бит; стерео
Смещение при сжатии : 0
TOC извлечённого CD
Трек | Старт | Длительность | Начальный сектор | Конечный сектор
---------------------------------------------------------------------
1 | 0:00.01 | 5:33.24 | 1 | 24999
2 | 5:33.25 | 6:01.48 | 25000 | 52122
3 | 11:34.73 | 8:58.03 | 52123 | 92475
4 | 20:33.01 | 5:12.09 | 92476 | 115884
5 | 25:45.10 | 5:58.71 | 115885 | 142805
6 | 31:44.06 | 7:11.58 | 142806 | 175188
7 | 38:55.64 | 6:14.55 | 175189 | 203293
8 | 45:10.44 | 5:55.61 | 203294 | 229979
Характеристики диапазона извлечения и сообщения об ошибках
Выбранный диапазон
Имя файла C:\Downloads\Various - The Best Of Italo Disco\The Best Of Italo Disco, Vol.4\Various - The Best Of Italo Disco Vol.4 CD2.wav
Пиковый уровень 100.0 %
Качество диапазона 100.0 %
CRC теста 44D25F3B
CRC копии 44D25F3B
Копирование... OK
Ошибок не произошло
AccurateRip: сводка
Трек 1 нет в базе данных
Трек 2 нет в базе данных
Трек 3 нет в базе данных
Трек 4 нет в базе данных
Трек 5 нет в базе данных
Трек 6 нет в базе данных
Трек 7 нет в базе данных
Трек 8 нет в базе данных
Ни одного трека нет в базе AccurateRip
Конец отчёта
The Best Of Italo Disco Vol.5 CD1
 Exact Audio Copy V0.99 prebeta 5 from 4. May 2009
Отчёт EAC об извлечении, выполненном 27. января 2010, 21:44
Various / The Best Of Italo Disco Vol.5 CD1
Дисковод: HL-DT-STDVD-RAM GH22NS30 Adapter: 2 ID: 0
Режим чтения : Достоверность
Использование точного потока : Да
Отключение кэша аудио : Да
Использование указателей C2 : Нет
Коррекция смещения при чтении : 102
Способность читать области Lead-in и Lead-out : Нет
Заполнение пропущенных сэмплов тишиной : Да
Удаление блоков с тишиной в начале и конце : Нет
При вычислениях CRC использовались нулевые сэмплы : Да
Интерфейс : Установленный внешний ASPI-интерфейс
Выходной формат : Внутренние WAV-операции
Формат сэмплов : 44.100 Гц; 16 бит; стерео
Смещение при сжатии : 0
TOC извлечённого CD
Трек | Старт | Длительность | Начальный сектор | Конечный сектор
---------------------------------------------------------------------
1 | 0:00.00 | 6:14.31 | 0 | 28080
2 | 6:14.31 | 6:05.02 | 28081 | 55457
3 | 12:19.33 | 6:00.16 | 55458 | 82473
4 | 18:19.49 | 7:30.01 | 82474 | 116224
5 | 25:49.50 | 6:16.10 | 116225 | 144434
6 | 32:05.60 | 4:45.60 | 144435 | 165869
7 | 36:51.45 | 6:46.32 | 165870 | 196351
8 | 43:38.02 | 6:42.00 | 196352 | 226501
Характеристики диапазона извлечения и сообщения об ошибках
Выбранный диапазон
Имя файла C:\Music\The Best Of Italo Disco, Vol.5\Various - The Best Of Italo Disco Vol.5 CD1.wav
Пиковый уровень 100.0 %
Качество диапазона 100.0 %
CRC теста F201983D
CRC копии F201983D
Копирование... OK
Ошибок не произошло
AccurateRip: сводка
Трек 1 нет в базе данных
Трек 2 нет в базе данных
Трек 3 нет в базе данных
Трек 4 нет в базе данных
Трек 5 точное извлечение (доверие 2) [970DEF4D]
Трек 6 нет в базе данных
Трек 7 нет в базе данных
Трек 8 нет в базе данных
1 трек(и) скопированы точно
7 трек(и) не содержатся в базе AccurateRip
Некоторые треки не прошли проверку на точность
Конец отчёта
The Best Of Italo Disco Vol.5 CD2
 Exact Audio Copy V0.99 prebeta 5 from 4. May 2009
Отчёт EAC об извлечении, выполненном 28. января 2010, 6:20
Various / The Best Of Italo Disco Vol.5 CD2
Дисковод: HL-DT-STDVD-RAM GH22NS30 Adapter: 2 ID: 0
Режим чтения : Достоверность
Использование точного потока : Да
Отключение кэша аудио : Да
Использование указателей C2 : Нет
Коррекция смещения при чтении : 102
Способность читать области Lead-in и Lead-out : Нет
Заполнение пропущенных сэмплов тишиной : Да
Удаление блоков с тишиной в начале и конце : Нет
При вычислениях CRC использовались нулевые сэмплы : Да
Интерфейс : Установленный внешний ASPI-интерфейс
Выходной формат : Внутренние WAV-операции
Формат сэмплов : 44.100 Гц; 16 бит; стерео
Смещение при сжатии : 0
TOC извлечённого CD
Трек | Старт | Длительность | Начальный сектор | Конечный сектор
---------------------------------------------------------------------
1 | 0:00.00 | 5:50.31 | 0 | 26280
2 | 5:50.31 | 5:36.54 | 26281 | 51534
3 | 11:27.10 | 5:48.61 | 51535 | 77695
4 | 17:15.71 | 6:34.30 | 77696 | 107275
5 | 23:50.26 | 5:52.02 | 107276 | 133677
6 | 29:42.28 | 6:44.24 | 133678 | 164001
7 | 36:26.52 | 7:00.69 | 164002 | 195570
8 | 43:27.46 | 5:11.35 | 195571 | 218930
9 | 48:39.06 | 6:36.69 | 218931 | 248699
Характеристики диапазона извлечения и сообщения об ошибках
Выбранный диапазон
Имя файла C:\Music\The Best Of Italo Disco, Vol.5\Various - The Best Of Italo Disco Vol.5 CD2.wav
Пиковый уровень 100.0 %
Качество диапазона 99.9 %
CRC теста 60B1EB14
CRC копии 60B1EB14
Копирование... OK
Ошибок не произошло
AccurateRip: сводка
Трек 1 нет в базе данных
Трек 2 нет в базе данных
Трек 3 нет в базе данных
Трек 4 нет в базе данных
Трек 5 нет в базе данных
Трек 6 нет в базе данных
Трек 7 нет в базе данных
Трек 8 нет в базе данных
Трек 9 нет в базе данных
Ни одного трека нет в базе AccurateRip
Конец отчёта
The Best Of Italo Disco Vol.6 CD1
 Exact Audio Copy V0.99 prebeta 5 from 4. May 2009
Отчёт EAC об извлечении, выполненном 28. января 2010, 20:42
Various / The Best Of Italo Disco Vol.6 CD1
Дисковод: HL-DT-STDVD-RAM GH22NS30 Adapter: 2 ID: 0
Режим чтения : Достоверность
Использование точного потока : Да
Отключение кэша аудио : Да
Использование указателей C2 : Нет
Коррекция смещения при чтении : 102
Способность читать области Lead-in и Lead-out : Нет
Заполнение пропущенных сэмплов тишиной : Да
Удаление блоков с тишиной в начале и конце : Нет
При вычислениях CRC использовались нулевые сэмплы : Да
Интерфейс : Установленный внешний ASPI-интерфейс
Выходной формат : Внутренние WAV-операции
Формат сэмплов : 44.100 Гц; 16 бит; стерео
Смещение при сжатии : 0
TOC извлечённого CD
Трек | Старт | Длительность | Начальный сектор | Конечный сектор
---------------------------------------------------------------------
1 | 0:00.00 | 4:57.47 | 0 | 22321
2 | 4:57.47 | 6:43.50 | 22322 | 52596
3 | 11:41.22 | 7:01.30 | 52597 | 84201
4 | 18:42.52 | 7:12.16 | 84202 | 116617
5 | 25:54.68 | 7:14.44 | 116618 | 149211
6 | 33:09.37 | 4:46.02 | 149212 | 170663
7 | 37:55.39 | 7:03.17 | 170664 | 202405
8 | 44:58.56 | 6:43.26 | 202406 | 232656
Характеристики диапазона извлечения и сообщения об ошибках
Выбранный диапазон
Имя файла C:\Music\The Best Of Italo Disco, Vol.6\Various - The Best Of Italo Disco Vol.6 CD1.wav
Пиковый уровень 90.1 %
Качество диапазона 100.0 %
CRC теста 514F604E
CRC копии 514F604E
Копирование... OK
Ошибок не произошло
AccurateRip: сводка
Трек 1 нет в базе данных
Трек 2 нет в базе данных
Трек 3 нет в базе данных
Трек 4 нет в базе данных
Трек 5 нет в базе данных
Трек 6 нет в базе данных
Трек 7 нет в базе данных
Трек 8 нет в базе данных
Ни одного трека нет в базе AccurateRip
Конец отчёта
The Best Of Italo Disco Vol.6 CD2
 Exact Audio Copy V0.99 prebeta 5 from 4. May 2009
Отчёт EAC об извлечении, выполненном 28. января 2010, 21:45
Various / The Best Of Italo Disco Vol.6 CD2
Дисковод: HL-DT-STDVD-RAM GH22NS30 Adapter: 2 ID: 0
Режим чтения : Достоверность
Использование точного потока : Да
Отключение кэша аудио : Да
Использование указателей C2 : Нет
Коррекция смещения при чтении : 102
Способность читать области Lead-in и Lead-out : Нет
Заполнение пропущенных сэмплов тишиной : Да
Удаление блоков с тишиной в начале и конце : Нет
При вычислениях CRC использовались нулевые сэмплы : Да
Интерфейс : Установленный внешний ASPI-интерфейс
Выходной формат : Внутренние WAV-операции
Формат сэмплов : 44.100 Гц; 16 бит; стерео
Смещение при сжатии : 0
TOC извлечённого CD
Трек | Старт | Длительность | Начальный сектор | Конечный сектор
---------------------------------------------------------------------
1 | 0:00.00 | 5:43.20 | 0 | 25744
2 | 5:43.20 | 6:38.50 | 25745 | 55644
3 | 12:21.70 | 6:15.17 | 55645 | 83786
4 | 18:37.12 | 5:44.12 | 83787 | 109598
5 | 24:21.24 | 4:57.65 | 109599 | 131938
6 | 29:19.14 | 6:30.34 | 131939 | 161222
7 | 35:49.48 | 5:29.45 | 161223 | 185942
8 | 41:19.18 | 6:35.74 | 185943 | 215641
Характеристики диапазона извлечения и сообщения об ошибках
Выбранный диапазон
Имя файла C:\Music\The Best Of Italo Disco, Vol.6\Various - The Best Of Italo Disco Vol.6 CD2.wav
Пиковый уровень 90.1 %
Качество диапазона 100.0 %
CRC теста 121F8DCB
CRC копии 121F8DCB
Копирование... OK
Ошибок не произошло
AccurateRip: сводка
Трек 1 нет в базе данных
Трек 2 нет в базе данных
Трек 3 нет в базе данных
Трек 4 нет в базе данных
Трек 5 нет в базе данных
Трек 6 нет в базе данных
Трек 7 нет в базе данных
Трек 8 нет в базе данных
Ни одного трека нет в базе AccurateRip
Конец отчёта
The Best Of Italo Disco Vol.7 CD1
 Exact Audio Copy V0.99 prebeta 5 from 4. May 2009
Отчёт EAC об извлечении, выполненном 28. января 2010, 22:36
Various / The Best Of Italo Disco Vol.7 CD1
Дисковод: HL-DT-STDVD-RAM GH22NS30 Adapter: 2 ID: 0
Режим чтения : Достоверность
Использование точного потока : Да
Отключение кэша аудио : Да
Использование указателей C2 : Нет
Коррекция смещения при чтении : 102
Способность читать области Lead-in и Lead-out : Нет
Заполнение пропущенных сэмплов тишиной : Да
Удаление блоков с тишиной в начале и конце : Нет
При вычислениях CRC использовались нулевые сэмплы : Да
Интерфейс : Установленный внешний ASPI-интерфейс
Выходной формат : Внутренние WAV-операции
Формат сэмплов : 44.100 Гц; 16 бит; стерео
Смещение при сжатии : 0
TOC извлечённого CD
Трек | Старт | Длительность | Начальный сектор | Конечный сектор
---------------------------------------------------------------------
1 | 0:00.00 | 6:24.74 | 0 | 28873
2 | 6:24.74 | 5:37.13 | 28874 | 54161
3 | 12:02.12 | 6:35.65 | 54162 | 83851
4 | 18:38.02 | 5:23.33 | 83852 | 108109
5 | 24:01.35 | 5:57.44 | 108110 | 134928
6 | 29:59.04 | 5:35.66 | 134929 | 160119
7 | 35:34.70 | 6:09.37 | 160120 | 187831
8 | 41:44.32 | 5:37.28 | 187832 | 213134
Характеристики диапазона извлечения и сообщения об ошибках
Выбранный диапазон
Имя файла C:\Music\The Best Of Italo Disco, Vol.7\Various - The Best Of Italo Disco Vol.7 CD1.wav
Пиковый уровень 98.0 %
Качество диапазона 99.9 %
CRC теста D29FD96A
CRC копии D29FD96A
Копирование... OK
Ошибок не произошло
AccurateRip: сводка
Трек 1 нет в базе данных
Трек 2 нет в базе данных
Трек 3 нет в базе данных
Трек 4 нет в базе данных
Трек 5 нет в базе данных
Трек 6 нет в базе данных
Трек 7 нет в базе данных
Трек 8 нет в базе данных
Ни одного трека нет в базе AccurateRip
Конец отчёта
The Best Of Italo Disco Vol.7 CD2
 Exact Audio Copy V0.99 prebeta 5 from 4. May 2009
Отчёт EAC об извлечении, выполненном 28. января 2010, 23:53
Various / The Best Of Italo Disco Vol.7 CD2
Дисковод: HL-DT-STDVD-RAM GH22NS30 Adapter: 2 ID: 0
Режим чтения : Достоверность
Использование точного потока : Да
Отключение кэша аудио : Да
Использование указателей C2 : Нет
Коррекция смещения при чтении : 102
Способность читать области Lead-in и Lead-out : Нет
Заполнение пропущенных сэмплов тишиной : Да
Удаление блоков с тишиной в начале и конце : Нет
При вычислениях CRC использовались нулевые сэмплы : Да
Интерфейс : Установленный внешний ASPI-интерфейс
Выходной формат : Внутренние WAV-операции
Формат сэмплов : 44.100 Гц; 16 бит; стерео
Смещение при сжатии : 0
TOC извлечённого CD
Трек | Старт | Длительность | Начальный сектор | Конечный сектор
---------------------------------------------------------------------
1 | 0:00.00 | 6:06.24 | 0 | 27473
2 | 6:06.24 | 6:05.58 | 27474 | 54906
3 | 12:12.07 | 6:55.34 | 54907 | 86065
4 | 19:07.41 | 5:07.14 | 86066 | 109104
5 | 24:14.55 | 5:08.49 | 109105 | 132253
6 | 29:23.29 | 6:10.00 | 132254 | 160003
7 | 35:33.29 | 5:18.70 | 160004 | 183923
8 | 40:52.24 | 5:43.07 | 183924 | 209655
Характеристики диапазона извлечения и сообщения об ошибках
Выбранный диапазон
Имя файла C:\Music\The Best Of Italo Disco, Vol.7\Various - The Best Of Italo Disco Vol.7 CD2.wav
Пиковый уровень 98.0 %
Качество диапазона 100.0 %
CRC теста 211992C8
CRC копии 211992C8
Копирование... OK
Ошибок не произошло
AccurateRip: сводка
Трек 1 нет в базе данных
Трек 2 нет в базе данных
Трек 3 нет в базе данных
Трек 4 нет в базе данных
Трек 5 нет в базе данных
Трек 6 нет в базе данных
Трек 7 нет в базе данных
Трек 8 нет в базе данных
Ни одного трека нет в базе AccurateRip
Конец отчёта
The Best Of Italo Disco Vol.8 CD1
 Exact Audio Copy V0.99 prebeta 5 from 4. May 2009
Отчёт EAC об извлечении, выполненном 24. января 2010, 20:56
Various / The Best Of Italo Disco Vol.8 CD1
Дисковод: HL-DT-STDVD-RAM GH22NS30 Adapter: 2 ID: 0
Режим чтения : Достоверность
Использование точного потока : Да
Отключение кэша аудио : Да
Использование указателей C2 : Нет
Коррекция смещения при чтении : 102
Способность читать области Lead-in и Lead-out : Нет
Заполнение пропущенных сэмплов тишиной : Да
Удаление блоков с тишиной в начале и конце : Нет
При вычислениях CRC использовались нулевые сэмплы : Да
Интерфейс : Установленный внешний ASPI-интерфейс
Выходной формат : Внутренние WAV-операции
Формат сэмплов : 44.100 Гц; 16 бит; стерео
Смещение при сжатии : 0
TOC извлечённого CD
Трек | Старт | Длительность | Начальный сектор | Конечный сектор
---------------------------------------------------------------------
1 | 0:00.00 | 5:36.04 | 0 | 25203
2 | 5:36.04 | 5:57.61 | 25204 | 52039
3 | 11:33.65 | 5:55.15 | 52040 | 78679
4 | 17:29.05 | 8:43.59 | 78680 | 117963
5 | 26:12.64 | 5:49.24 | 117964 | 144162
6 | 32:02.13 | 7:37.05 | 144163 | 178442
7 | 39:39.18 | 6:25.74 | 178443 | 207391
8 | 46:05.17 | 7:31.50 | 207392 | 241266
Характеристики диапазона извлечения и сообщения об ошибках
Выбранный диапазон
Имя файла C:\Downloads\Various - The Best Of Italo Disco, Vol.8\Various - The Best Of Italo Disco Vol.8 CD1.wav
Пиковый уровень 85.3 %
Качество диапазона 100.0 %
CRC теста FD273261
CRC копии FD273261
Копирование... OK
Ошибок не произошло
AccurateRip: сводка
Трек 1 нет в базе данных
Трек 2 нет в базе данных
Трек 3 нет в базе данных
Трек 4 нет в базе данных
Трек 5 нет в базе данных
Трек 6 нет в базе данных
Трек 7 нет в базе данных
Трек 8 нет в базе данных
Ни одного трека нет в базе AccurateRip
Конец отчёта
The Best Of Italo Disco Vol.8 CD2
 Exact Audio Copy V0.99 prebeta 5 from 4. May 2009
Отчёт EAC об извлечении, выполненном 25. января 2010, 4:52
Various / The Best Of Italo Disco Vol.8 CD2
Дисковод: HL-DT-STDVD-RAM GH22NS30 Adapter: 2 ID: 0
Режим чтения : Достоверность
Использование точного потока : Да
Отключение кэша аудио : Да
Использование указателей C2 : Нет
Коррекция смещения при чтении : 102
Способность читать области Lead-in и Lead-out : Нет
Заполнение пропущенных сэмплов тишиной : Да
Удаление блоков с тишиной в начале и конце : Нет
При вычислениях CRC использовались нулевые сэмплы : Да
Интерфейс : Установленный внешний ASPI-интерфейс
Выходной формат : Внутренние WAV-операции
Формат сэмплов : 44.100 Гц; 16 бит; стерео
Смещение при сжатии : 0
TOC извлечённого CD
Трек | Старт | Длительность | Начальный сектор | Конечный сектор
---------------------------------------------------------------------
1 | 0:00.00 | 6:01.62 | 0 | 27136
2 | 6:01.62 | 7:01.30 | 27137 | 58741
3 | 13:03.17 | 6:58.41 | 58742 | 90132
4 | 20:01.58 | 6:03.34 | 90133 | 117391
5 | 26:05.17 | 5:42.31 | 117392 | 143072
6 | 31:47.48 | 7:04.46 | 143073 | 174918
7 | 38:52.19 | 6:15.38 | 174919 | 203081
8 | 45:07.57 | 7:10.56 | 203082 | 235387
Характеристики диапазона извлечения и сообщения об ошибках
Выбранный диапазон
Имя файла C:\Downloads\Various - The Best Of Italo Disco, Vol.8\Various - The Best Of Italo Disco Vol.8 CD2.wav
Пиковый уровень 79.2 %
Качество диапазона 100.0 %
CRC теста C126B573
CRC копии C126B573
Копирование... OK
Ошибок не произошло
AccurateRip: сводка
Трек 1 нет в базе данных
Трек 2 нет в базе данных
Трек 3 нет в базе данных
Трек 4 нет в базе данных
Трек 5 нет в базе данных
Трек 6 нет в базе данных
Трек 7 нет в базе данных
Трек 8 нет в базе данных
Ни одного трека нет в базе AccurateRip
Конец отчёта
The Best Of Italo Disco Vol.9 CD1
 Exact Audio Copy V0.99 prebeta 5 from 4. May 2009
Отчёт EAC об извлечении, выполненном 29. января 2010, 13:22
Various / The Best Of Italo Disco Vol.9 CD1
Дисковод: HL-DT-STDVD-RAM GH22NS30 Adapter: 2 ID: 0
Режим чтения : Достоверность
Использование точного потока : Да
Отключение кэша аудио : Да
Использование указателей C2 : Нет
Коррекция смещения при чтении : 102
Способность читать области Lead-in и Lead-out : Нет
Заполнение пропущенных сэмплов тишиной : Да
Удаление блоков с тишиной в начале и конце : Нет
При вычислениях CRC использовались нулевые сэмплы : Да
Интерфейс : Установленный внешний ASPI-интерфейс
Выходной формат : Внутренние WAV-операции
Формат сэмплов : 44.100 Гц; 16 бит; стерео
Смещение при сжатии : 0
TOC извлечённого CD
Трек | Старт | Длительность | Начальный сектор | Конечный сектор
---------------------------------------------------------------------
1 | 0:00.00 | 6:05.35 | 0 | 27409
2 | 6:05.35 | 6:47.35 | 27410 | 57969
3 | 12:52.70 | 5:34.45 | 57970 | 83064
4 | 18:27.40 | 7:28.10 | 83065 | 116674
5 | 25:55.50 | 5:11.32 | 116675 | 140031
6 | 31:07.07 | 6:00.15 | 140032 | 167046
7 | 37:07.22 | 5:03.18 | 167047 | 189789
8 | 42:10.40 | 5:54.07 | 189790 | 216346
Характеристики диапазона извлечения и сообщения об ошибках
Выбранный диапазон
Имя файла C:\Music\The Best Of Italo Disco, Vol.9\Various - The Best Of Italo Disco Vol.9 CD1.wav
Пиковый уровень 99.9 %
Качество диапазона 99.9 %
CRC теста A2EE5548
CRC копии A2EE5548
Копирование... OK
Ошибок не произошло
AccurateRip: сводка
Трек 1 нет в базе данных
Трек 2 нет в базе данных
Трек 3 нет в базе данных
Трек 4 нет в базе данных
Трек 5 нет в базе данных
Трек 6 нет в базе данных
Трек 7 нет в базе данных
Трек 8 нет в базе данных
Ни одного трека нет в базе AccurateRip
Конец отчёта
The Best Of Italo Disco Vol.9 CD2
 Exact Audio Copy V0.99 prebeta 5 from 4. May 2009
Отчёт EAC об извлечении, выполненном 29. января 2010, 17:57
Various / The Best Of Italo Disco Vol.9 CD2
Дисковод: HL-DT-STDVD-RAM GH22NS30 Adapter: 2 ID: 0
Режим чтения : Достоверность
Использование точного потока : Да
Отключение кэша аудио : Да
Использование указателей C2 : Нет
Коррекция смещения при чтении : 102
Способность читать области Lead-in и Lead-out : Нет
Заполнение пропущенных сэмплов тишиной : Да
Удаление блоков с тишиной в начале и конце : Нет
При вычислениях CRC использовались нулевые сэмплы : Да
Интерфейс : Установленный внешний ASPI-интерфейс
Выходной формат : Внутренние WAV-операции
Формат сэмплов : 44.100 Гц; 16 бит; стерео
Смещение при сжатии : 0
TOC извлечённого CD
Трек | Старт | Длительность | Начальный сектор | Конечный сектор
---------------------------------------------------------------------
1 | 0:00.00 | 3:52.66 | 0 | 17465
2 | 3:52.66 | 5:20.34 | 17466 | 41499
3 | 9:13.25 | 6:56.33 | 41500 | 72732
4 | 16:09.58 | 8:35.45 | 72733 | 111402
5 | 24:45.28 | 6:46.17 | 111403 | 141869
6 | 31:31.45 | 5:53.39 | 141870 | 168383
7 | 37:25.09 | 5:20.62 | 168384 | 192445
8 | 42:45.71 | 6:51.69 | 192446 | 223339
Характеристики диапазона извлечения и сообщения об ошибках
Выбранный диапазон
Имя файла C:\Music\The Best Of Italo Disco, Vol.9\Various - The Best Of Italo Disco Vol.9 CD2.wav
Пиковый уровень 99.9 %
Качество диапазона 100.0 %
CRC теста D9C46895
CRC копии D9C46895
Копирование... OK
Ошибок не произошло
AccurateRip: сводка
Трек 1 нет в базе данных
Трек 2 нет в базе данных
Трек 3 нет в базе данных
Трек 4 нет в базе данных
Трек 5 нет в базе данных
Трек 6 нет в базе данных
Трек 7 нет в базе данных
Трек 8 нет в базе данных
Ни одного трека нет в базе AccurateRip
Конец отчёта
The Best Of Italo Disco Vol.10 CD1
 Exact Audio Copy V0.99 prebeta 5 from 4. May 2009
Отчёт EAC об извлечении, выполненном 29. января 2010, 19:01
Various / The Best Of Italo Disco Vol.10 CD1
Дисковод: HL-DT-STDVD-RAM GH22NS30 Adapter: 2 ID: 0
Режим чтения : Достоверность
Использование точного потока : Да
Отключение кэша аудио : Да
Использование указателей C2 : Нет
Коррекция смещения при чтении : 102
Способность читать области Lead-in и Lead-out : Нет
Заполнение пропущенных сэмплов тишиной : Да
Удаление блоков с тишиной в начале и конце : Нет
При вычислениях CRC использовались нулевые сэмплы : Да
Интерфейс : Установленный внешний ASPI-интерфейс
Выходной формат : Внутренние WAV-операции
Формат сэмплов : 44.100 Гц; 16 бит; стерео
Смещение при сжатии : 0
TOC извлечённого CD
Трек | Старт | Длительность | Начальный сектор | Конечный сектор
---------------------------------------------------------------------
1 | 0:00.00 | 5:19.10 | 0 | 23934
2 | 5:19.10 | 6:09.52 | 23935 | 51661
3 | 11:28.62 | 5:50.20 | 51662 | 77931
4 | 17:19.07 | 7:35.13 | 77932 | 112069
5 | 24:54.20 | 6:05.33 | 112070 | 139477
6 | 30:59.53 | 6:50.46 | 139478 | 170273
7 | 37:50.24 | 6:20.46 | 170274 | 198819
8 | 44:10.70 | 6:13.08 | 198820 | 226802
Характеристики диапазона извлечения и сообщения об ошибках
Выбранный диапазон
Имя файла C:\Music\The Best Of Italo Disco, Vol.10\Various - The Best Of Italo Disco Vol.10 CD1.wav
Пиковый уровень 100.0 %
Качество диапазона 100.0 %
CRC теста 7C74C3EE
CRC копии 7C74C3EE
Копирование... OK
Ошибок не произошло
AccurateRip: сводка
Трек 1 нет в базе данных
Трек 2 нет в базе данных
Трек 3 нет в базе данных
Трек 4 нет в базе данных
Трек 5 нет в базе данных
Трек 6 нет в базе данных
Трек 7 нет в базе данных
Трек 8 нет в базе данных
Ни одного трека нет в базе AccurateRip
Конец отчёта
The Best Of Italo Disco Vol.10 CD2
 Exact Audio Copy V0.99 prebeta 5 from 4. May 2009
Отчёт EAC об извлечении, выполненном 29. января 2010, 19:45
Various / The Best Of Italo Disco Vol.10 CD2
Дисковод: HL-DT-STDVD-RAM GH22NS30 Adapter: 2 ID: 0
Режим чтения : Достоверность
Использование точного потока : Да
Отключение кэша аудио : Да
Использование указателей C2 : Нет
Коррекция смещения при чтении : 102
Способность читать области Lead-in и Lead-out : Нет
Заполнение пропущенных сэмплов тишиной : Да
Удаление блоков с тишиной в начале и конце : Нет
При вычислениях CRC использовались нулевые сэмплы : Да
Интерфейс : Установленный внешний ASPI-интерфейс
Выходной формат : Внутренние WAV-операции
Формат сэмплов : 44.100 Гц; 16 бит; стерео
Смещение при сжатии : 0
TOC извлечённого CD
Трек | Старт | Длительность | Начальный сектор | Конечный сектор
---------------------------------------------------------------------
1 | 0:00.00 | 6:21.65 | 0 | 28639
2 | 6:21.65 | 5:41.41 | 28640 | 54255
3 | 12:03.31 | 5:49.30 | 54256 | 80460
4 | 17:52.61 | 6:31.37 | 80461 | 109822
5 | 24:24.23 | 5:41.46 | 109823 | 135443
6 | 30:05.69 | 6:49.41 | 135444 | 166159
7 | 36:55.35 | 5:06.69 | 166160 | 189178
8 | 42:02.29 | 6:05.62 | 189179 | 216615
Характеристики диапазона извлечения и сообщения об ошибках
Выбранный диапазон
Имя файла C:\Music\The Best Of Italo Disco, Vol.10\Various - The Best Of Italo Disco Vol.10 CD2.wav
Пиковый уровень 100.0 %
Качество диапазона 100.0 %
CRC теста 87A68BCE
CRC копии 87A68BCE
Копирование... OK
Ошибок не произошло
AccurateRip: сводка
Трек 1 нет в базе данных
Трек 2 нет в базе данных
Трек 3 нет в базе данных
Трек 4 нет в базе данных
Трек 5 нет в базе данных
Трек 6 нет в базе данных
Трек 7 нет в базе данных
Трек 8 нет в базе данных
Ни одного трека нет в базе AccurateRip
Конец отчёта
The Best Of Italo Disco Vol.11 CD1
 Exact Audio Copy V0.99 prebeta 5 from 4. May 2009
Отчёт EAC об извлечении, выполненном 25. января 2010, 20:18
Various / The Best Of Italo Disco Vol.11 CD1
Дисковод: HL-DT-STDVD-RAM GH22NS30 Adapter: 2 ID: 0
Режим чтения : Достоверность
Использование точного потока : Да
Отключение кэша аудио : Да
Использование указателей C2 : Нет
Коррекция смещения при чтении : 102
Способность читать области Lead-in и Lead-out : Нет
Заполнение пропущенных сэмплов тишиной : Да
Удаление блоков с тишиной в начале и конце : Нет
При вычислениях CRC использовались нулевые сэмплы : Да
Интерфейс : Установленный внешний ASPI-интерфейс
Выходной формат : Внутренние WAV-операции
Формат сэмплов : 44.100 Гц; 16 бит; стерео
Смещение при сжатии : 0
TOC извлечённого CD
Трек | Старт | Длительность | Начальный сектор | Конечный сектор
---------------------------------------------------------------------
1 | 0:00.00 | 6:59.37 | 0 | 31461
2 | 6:59.37 | 9:08.46 | 31462 | 72607
3 | 16:08.08 | 4:36.00 | 72608 | 93307
4 | 20:44.08 | 5:52.33 | 93308 | 119740
5 | 26:36.41 | 8:35.10 | 119741 | 158375
6 | 35:11.51 | 5:44.63 | 158376 | 184238
7 | 40:56.39 | 5:32.48 | 184239 | 209186
8 | 46:29.12 | 4:59.48 | 209187 | 231659
Характеристики диапазона извлечения и сообщения об ошибках
Выбранный диапазон
Имя файла C:\Downloads\Various - The Best Of Italo Disco, Vol.11\Various - The Best Of Italo Disco Vol.11 CD1.wav
Пиковый уровень 100.0 %
Качество диапазона 100.0 %
CRC теста BBCF8E28
CRC копии BBCF8E28
Копирование... OK
Ошибок не произошло
AccurateRip: сводка
Трек 1 нет в базе данных
Трек 2 нет в базе данных
Трек 3 нет в базе данных
Трек 4 нет в базе данных
Трек 5 нет в базе данных
Трек 6 нет в базе данных
Трек 7 нет в базе данных
Трек 8 нет в базе данных
Ни одного трека нет в базе AccurateRip
Конец отчёта
The Best Of Italo Disco Vol.11 CD2
 Exact Audio Copy V0.99 prebeta 5 from 4. May 2009
Отчёт EAC об извлечении, выполненном 25. января 2010, 21:04
Various / The Best Of Italo Disco Vol.11 CD2
Дисковод: HL-DT-STDVD-RAM GH22NS30 Adapter: 2 ID: 0
Режим чтения : Достоверность
Использование точного потока : Да
Отключение кэша аудио : Да
Использование указателей C2 : Нет
Коррекция смещения при чтении : 102
Способность читать области Lead-in и Lead-out : Нет
Заполнение пропущенных сэмплов тишиной : Да
Удаление блоков с тишиной в начале и конце : Нет
При вычислениях CRC использовались нулевые сэмплы : Да
Интерфейс : Установленный внешний ASPI-интерфейс
Выходной формат : Внутренние WAV-операции
Формат сэмплов : 44.100 Гц; 16 бит; стерео
Смещение при сжатии : 0
TOC извлечённого CD
Трек | Старт | Длительность | Начальный сектор | Конечный сектор
---------------------------------------------------------------------
1 | 0:00.00 | 6:59.45 | 0 | 31469
2 | 6:59.45 | 6:32.67 | 31470 | 60936
3 | 13:32.37 | 5:54.14 | 60937 | 87500
4 | 19:26.51 | 6:24.36 | 87501 | 116336
5 | 25:51.12 | 5:53.40 | 116337 | 142851
6 | 31:44.52 | 6:25.50 | 142852 | 171776
7 | 38:10.27 | 5:27.65 | 171777 | 196366
8 | 43:38.17 | 6:17.60 | 196367 | 224701
Характеристики диапазона извлечения и сообщения об ошибках
Выбранный диапазон
Имя файла C:\Downloads\Various - The Best Of Italo Disco, Vol.11\Various - The Best Of Italo Disco Vol.11 CD2.wav
Пиковый уровень 100.0 %
Качество диапазона 100.0 %
CRC теста C6F9FD51
CRC копии C6F9FD51
Копирование... OK
Ошибок не произошло
AccurateRip: сводка
Трек 1 нет в базе данных
Трек 2 нет в базе данных
Трек 3 нет в базе данных
Трек 4 нет в базе данных
Трек 5 нет в базе данных
Трек 6 нет в базе данных
Трек 7 нет в базе данных
Трек 8 нет в базе данных
Ни одного трека нет в базе AccurateRip
Конец отчёта
The Best Of Italo Disco Vol.13 CD1
 Exact Audio Copy V0.99 prebeta 5 from 4. May 2009
Отчёт EAC об извлечении, выполненном 29. мая 2010, 2:11
Various / The Best Of Italo Disco Vol.13 CD1
Дисковод: HL-DT-STDVD-RAM GH22NS30 Adapter: 2 ID: 1
Режим чтения : Достоверность
Использование точного потока : Да
Отключение кэша аудио : Да
Использование указателей C2 : Нет
Коррекция смещения при чтении : 102
Способность читать области Lead-in и Lead-out : Нет
Заполнение пропущенных сэмплов тишиной : Да
Удаление блоков с тишиной в начале и конце : Нет
При вычислениях CRC использовались нулевые сэмплы : Да
Интерфейс : Установленный внешний ASPI-интерфейс
Выходной формат : Внутренние WAV-операции
Формат сэмплов : 44.100 Гц; 16 бит; стерео
Смещение при сжатии : 0
TOC извлечённого CD
Трек | Старт | Длительность | Начальный сектор | Конечный сектор
---------------------------------------------------------------------
1 | 0:00.00 | 6:08.36 | 0 | 27635
2 | 6:08.36 | 6:09.30 | 27636 | 55340
3 | 12:17.66 | 5:37.01 | 55341 | 80616
4 | 17:54.67 | 5:59.73 | 80617 | 107614
5 | 23:54.65 | 5:49.45 | 107615 | 133834
6 | 29:44.35 | 7:38.18 | 133835 | 168202
7 | 37:22.53 | 5:03.16 | 168203 | 190943
8 | 42:25.69 | 6:54.20 | 190944 | 222013
Характеристики диапазона извлечения и сообщения об ошибках
Выбранный диапазон
Имя файла C:\Downloads\Various - The Best Of Italo Disco\The Best Of Italo Disco, Vol.13\Various - The Best Of Italo Disco Vol.13 CD1.wav
Пиковый уровень 98.7 %
Качество диапазона 100.0 %
CRC теста 648336C6
CRC копии 648336C6
Копирование... OK
Ошибок не произошло
AccurateRip: сводка
Трек 1 нет в базе данных
Трек 2 нет в базе данных
Трек 3 нет в базе данных
Трек 4 нет в базе данных
Трек 5 нет в базе данных
Трек 6 нет в базе данных
Трек 7 нет в базе данных
Трек 8 нет в базе данных
Ни одного трека нет в базе AccurateRip
Конец отчёта
The Best Of Italo Disco Vol.13 CD2
 Exact Audio Copy V0.99 prebeta 5 from 4. May 2009
Отчёт EAC об извлечении, выполненном 29. мая 2010, 2:49
Various / The Best Of Italo Disco Vol.13 CD2
Дисковод: HL-DT-STDVD-RAM GH22NS30 Adapter: 2 ID: 1
Режим чтения : Достоверность
Использование точного потока : Да
Отключение кэша аудио : Да
Использование указателей C2 : Нет
Коррекция смещения при чтении : 102
Способность читать области Lead-in и Lead-out : Нет
Заполнение пропущенных сэмплов тишиной : Да
Удаление блоков с тишиной в начале и конце : Нет
При вычислениях CRC использовались нулевые сэмплы : Да
Интерфейс : Установленный внешний ASPI-интерфейс
Выходной формат : Внутренние WAV-операции
Формат сэмплов : 44.100 Гц; 16 бит; стерео
Смещение при сжатии : 0
TOC извлечённого CD
Трек | Старт | Длительность | Начальный сектор | Конечный сектор
---------------------------------------------------------------------
1 | 0:00.00 | 9:37.00 | 0 | 43274
2 | 9:37.00 | 5:30.58 | 43275 | 68082
3 | 15:07.58 | 4:14.20 | 68083 | 87152
4 | 19:22.03 | 7:08.66 | 87153 | 119318
5 | 26:30.69 | 4:58.02 | 119319 | 141670
6 | 31:28.71 | 5:04.63 | 141671 | 164533
7 | 36:33.59 | 5:09.50 | 164534 | 187758
8 | 41:43.34 | 5:57.20 | 187759 | 214553
Характеристики диапазона извлечения и сообщения об ошибках
Выбранный диапазон
Имя файла C:\Downloads\Various - The Best Of Italo Disco\The Best Of Italo Disco, Vol.13\Various - The Best Of Italo Disco Vol.13 CD2.wav
Пиковый уровень 98.7 %
Качество диапазона 99.9 %
CRC теста 27310189
CRC копии 27310189
Копирование... OK
Ошибок не произошло
AccurateRip: сводка
Трек 1 нет в базе данных
Трек 2 нет в базе данных
Трек 3 нет в базе данных
Трек 4 нет в базе данных
Трек 5 нет в базе данных
Трек 6 нет в базе данных
Трек 7 нет в базе данных
Трек 8 нет в базе данных
Ни одного трека нет в базе AccurateRip
Конец отчёта
 Exact Audio Copy V0.99 prebeta 5 from 4. May 2009
Отчёт EAC об извлечении, выполненном 6. февраля 2010, 15:27
Various / The Best Of Italo Disco
Дисковод: HL-DT-STDVD-RAM GH22NS30 Adapter: 2 ID: 0
Режим чтения : Достоверность
Использование точного потока : Да
Отключение кэша аудио : Да
Использование указателей C2 : Нет
Коррекция смещения при чтении : 102
Способность читать области Lead-in и Lead-out : Нет
Заполнение пропущенных сэмплов тишиной : Да
Удаление блоков с тишиной в начале и конце : Нет
При вычислениях CRC использовались нулевые сэмплы : Да
Интерфейс : Установленный внешний ASPI-интерфейс
Выходной формат : Внутренние WAV-операции
Формат сэмплов : 44.100 Гц; 16 бит; стерео
Смещение при сжатии : 0
TOC извлечённого CD
Трек | Старт | Длительность | Начальный сектор | Конечный сектор
---------------------------------------------------------------------
1 | 0:00.00 | 5:07.26 | 0 | 23050
2 | 5:07.26 | 8:02.20 | 23051 | 59220
3 | 13:09.46 | 6:16.32 | 59221 | 87452
4 | 19:26.03 | 6:55.29 | 87453 | 118606
5 | 26:21.32 | 7:00.10 | 118607 | 150116
6 | 33:21.42 | 6:20.36 | 150117 | 178652
7 | 39:42.03 | 5:01.31 | 178653 | 201258
8 | 44:43.34 | 5:06.10 | 201259 | 224218
9 | 49:49.44 | 7:03.29 | 224219 | 255972
10 | 56:52.73 | 6:43.12 | 255973 | 286209
11 | 63:36.10 | 7:56.17 | 286210 | 321926
12 | 71:32.27 | 7:05.61 | 321927 | 353862
Характеристики диапазона извлечения и сообщения об ошибках
Выбранный диапазон
Имя файла C:\Downloads\Various - The Best Of Italo Disco\The Best Of Italo Disco\Various - The Best Of Italo Disco.wav
Пиковый уровень 100.0 %
Качество диапазона 100.0 %
CRC теста 0B36D5CA
CRC копии 0B36D5CA
Копирование... OK
Ошибок не произошло
AccurateRip: сводка
Трек 1 нет в базе данных
Трек 2 нет в базе данных
Трек 3 нет в базе данных
Трек 4 нет в базе данных
Трек 5 нет в базе данных
Трек 6 нет в базе данных
Трек 7 нет в базе данных
Трек 8 нет в базе данных
Трек 9 нет в базе данных
Трек 10 нет в базе данных
Трек 11 нет в базе данных
Трек 12 нет в базе данных
Ни одного трека нет в базе AccurateRip
Конец отчёта
 Exact Audio Copy V0.99 prebeta 5 from 4. May 2009
Отчёт EAC об извлечении, выполненном 6. февраля 2010, 0:00
Various / The Best Of Italo Disco Vol.2 CD1
Дисковод: HL-DT-STDVD-RAM GH22NS30 Adapter: 2 ID: 0
Режим чтения : Достоверность
Использование точного потока : Да
Отключение кэша аудио : Да
Использование указателей C2 : Нет
Коррекция смещения при чтении : 102
Способность читать области Lead-in и Lead-out : Нет
Заполнение пропущенных сэмплов тишиной : Да
Удаление блоков с тишиной в начале и конце : Нет
При вычислениях CRC использовались нулевые сэмплы : Да
Интерфейс : Установленный внешний ASPI-интерфейс
Выходной формат : Внутренние WAV-операции
Формат сэмплов : 44.100 Гц; 16 бит; стерео
Смещение при сжатии : 0
TOC извлечённого CD
Трек | Старт | Длительность | Начальный сектор | Конечный сектор
---------------------------------------------------------------------
1 | 0:00.01 | 5:05.37 | 1 | 22912
2 | 5:05.38 | 7:08.14 | 22913 | 55026
3 | 12:13.52 | 5:35.66 | 55027 | 80217
4 | 17:49.43 | 7:12.12 | 80218 | 112629
5 | 25:01.55 | 6:25.36 | 112630 | 141540
6 | 31:27.16 | 5:38.30 | 141541 | 166920
7 | 37:05.46 | 6:35.15 | 166921 | 196560
8 | 43:40.61 | 5:12.28 | 196561 | 219988
9 | 48:53.14 | 7:21.38 | 219989 | 253101
Характеристики диапазона извлечения и сообщения об ошибках
Выбранный диапазон
Имя файла C:\Downloads\Various - The Best Of Italo Disco\The Best Of Italo Disco, Vol.2\Various - The Best Of Italo Disco Vol.2 CD1.wav
Пиковый уровень 100.0 %
Качество диапазона 100.0 %
CRC теста 63C7E086
CRC копии 63C7E086
Копирование... OK
Ошибок не произошло
AccurateRip: сводка
Трек 1 нет в базе данных
Трек 2 нет в базе данных
Трек 3 нет в базе данных
Трек 4 нет в базе данных
Трек 5 нет в базе данных
Трек 6 нет в базе данных
Трек 7 нет в базе данных
Трек 8 нет в базе данных
Трек 9 нет в базе данных
Ни одного трека нет в базе AccurateRip
Конец отчёта
 Exact Audio Copy V0.99 prebeta 5 from 4. May 2009
Отчёт EAC об извлечении, выполненном 6. февраля 2010, 7:18
Various / The Best Of Italo Disco Vol.2 CD2
Дисковод: HL-DT-STDVD-RAM GH22NS30 Adapter: 2 ID: 0
Режим чтения : Достоверность
Использование точного потока : Да
Отключение кэша аудио : Да
Использование указателей C2 : Нет
Коррекция смещения при чтении : 102
Способность читать области Lead-in и Lead-out : Нет
Заполнение пропущенных сэмплов тишиной : Да
Удаление блоков с тишиной в начале и конце : Нет
При вычислениях CRC использовались нулевые сэмплы : Да
Интерфейс : Установленный внешний ASPI-интерфейс
Выходной формат : Внутренние WAV-операции
Формат сэмплов : 44.100 Гц; 16 бит; стерео
Смещение при сжатии : 0
TOC извлечённого CD
Трек | Старт | Длительность | Начальный сектор | Конечный сектор
---------------------------------------------------------------------
1 | 0:00.01 | 6:37.51 | 1 | 29826
2 | 6:37.52 | 6:46.35 | 29827 | 60311
3 | 13:24.12 | 6:11.17 | 60312 | 88153
4 | 19:35.29 | 7:30.37 | 88154 | 121940
5 | 27:05.66 | 5:50.20 | 121941 | 148210
6 | 32:56.11 | 7:41.32 | 148211 | 182817
7 | 40:37.43 | 7:40.30 | 182818 | 217347
8 | 48:17.73 | 7:35.31 | 217348 | 251503
9 | 55:53.29 | 6:33.13 | 251504 | 280991
Характеристики диапазона извлечения и сообщения об ошибках
Выбранный диапазон
Имя файла C:\Downloads\Various - The Best Of Italo Disco\The Best Of Italo Disco, Vol.2\Various - The Best Of Italo Disco Vol.2 CD2.wav
Пиковый уровень 100.0 %
Качество диапазона 100.0 %
CRC теста FBFE3ADD
CRC копии FBFE3ADD
Копирование... OK
Ошибок не произошло
AccurateRip: сводка
Трек 1 нет в базе данных
Трек 2 нет в базе данных
Трек 3 нет в базе данных
Трек 4 нет в базе данных
Трек 5 нет в базе данных
Трек 6 нет в базе данных
Трек 7 нет в базе данных
Трек 8 нет в базе данных
Трек 9 нет в базе данных
Ни одного трека нет в базе AccurateRip
Конец отчёта
 Exact Audio Copy V0.99 prebeta 5 from 4. May 2009
Отчёт EAC об извлечении, выполненном 6. февраля 2010, 10:42
Various / The Best Of Italo Disco Vol.3 CD1
Дисковод: HL-DT-STDVD-RAM GH22NS30 Adapter: 2 ID: 0
Режим чтения : Достоверность
Использование точного потока : Да
Отключение кэша аудио : Да
Использование указателей C2 : Нет
Коррекция смещения при чтении : 102
Способность читать области Lead-in и Lead-out : Нет
Заполнение пропущенных сэмплов тишиной : Да
Удаление блоков с тишиной в начале и конце : Нет
При вычислениях CRC использовались нулевые сэмплы : Да
Интерфейс : Установленный внешний ASPI-интерфейс
Выходной формат : Внутренние WAV-операции
Формат сэмплов : 44.100 Гц; 16 бит; стерео
Смещение при сжатии : 0
TOC извлечённого CD
Трек | Старт | Длительность | Начальный сектор | Конечный сектор
---------------------------------------------------------------------
1 | 0:00.00 | 5:17.66 | 0 | 23840
2 | 5:17.66 | 7:50.19 | 23841 | 59109
3 | 13:08.10 | 7:30.52 | 59110 | 92911
4 | 20:38.62 | 6:21.71 | 92912 | 121557
5 | 27:00.58 | 6:29.22 | 121558 | 150754
6 | 33:30.05 | 6:11.18 | 150755 | 178597
Характеристики диапазона извлечения и сообщения об ошибках
Выбранный диапазон
Имя файла C:\Downloads\Various - The Best Of Italo Disco\The Best Of Italo Disco, Vol.3\Various - The Best Of Italo Disco Vol.3 CD1.wav
Пиковый уровень 100.0 %
Качество диапазона 100.0 %
CRC теста 23FECCEA
CRC копии 23FECCEA
Копирование... OK
Ошибок не произошло
AccurateRip: сводка
Трек 1 нет в базе данных
Трек 2 нет в базе данных
Трек 3 нет в базе данных
Трек 4 нет в базе данных
Трек 5 нет в базе данных
Трек 6 нет в базе данных
Ни одного трека нет в базе AccurateRip
Конец отчёта
 Exact Audio Copy V0.99 prebeta 5 from 4. May 2009
Отчёт EAC об извлечении, выполненном 6. февраля 2010, 12:22
Various / The Best Of Italo Disco Vol.3 CD2
Дисковод: HL-DT-STDVD-RAM GH22NS30 Adapter: 2 ID: 0
Режим чтения : Достоверность
Использование точного потока : Да
Отключение кэша аудио : Да
Использование указателей C2 : Нет
Коррекция смещения при чтении : 102
Способность читать области Lead-in и Lead-out : Нет
Заполнение пропущенных сэмплов тишиной : Да
Удаление блоков с тишиной в начале и конце : Нет
При вычислениях CRC использовались нулевые сэмплы : Да
Интерфейс : Установленный внешний ASPI-интерфейс
Выходной формат : Внутренние WAV-операции
Формат сэмплов : 44.100 Гц; 16 бит; стерео
Смещение при сжатии : 0
TOC извлечённого CD
Трек | Старт | Длительность | Начальный сектор | Конечный сектор
---------------------------------------------------------------------
1 | 0:00.00 | 6:12.31 | 0 | 27930
2 | 6:12.31 | 5:37.58 | 27931 | 53263
3 | 11:50.14 | 6:03.68 | 53264 | 80556
4 | 17:54.07 | 6:30.42 | 80557 | 109848
5 | 24:24.49 | 6:19.46 | 109849 | 138319
6 | 30:44.20 | 8:15.58 | 138320 | 175502
7 | 39:00.03 | 6:10.39 | 175503 | 203291
Характеристики диапазона извлечения и сообщения об ошибках
Выбранный диапазон
Имя файла C:\Downloads\Various - The Best Of Italo Disco\The Best Of Italo Disco, Vol.3\Various - The Best Of Italo Disco Vol.3 CD2.wav
Пиковый уровень 100.0 %
Качество диапазона 100.0 %
CRC теста 82E0BB50
CRC копии 82E0BB50
Копирование... OK
Ошибок не произошло
AccurateRip: сводка
Трек 1 нет в базе данных
Трек 2 нет в базе данных
Трек 3 нет в базе данных
Трек 4 нет в базе данных
Трек 5 нет в базе данных
Трек 6 нет в базе данных
Трек 7 нет в базе данных
Ни одного трека нет в базе AccurateRip
Конец отчёта
 Exact Audio Copy V0.99 prebeta 5 from 4. May 2009
Отчёт EAC об извлечении, выполненном 6. февраля 2010, 13:45
Various / The Best Of Italo Disco Vol.4 CD1
Дисковод: HL-DT-STDVD-RAM GH22NS30 Adapter: 2 ID: 0
Режим чтения : Достоверность
Использование точного потока : Да
Отключение кэша аудио : Да
Использование указателей C2 : Нет
Коррекция смещения при чтении : 102
Способность читать области Lead-in и Lead-out : Нет
Заполнение пропущенных сэмплов тишиной : Да
Удаление блоков с тишиной в начале и конце : Нет
При вычислениях CRC использовались нулевые сэмплы : Да
Интерфейс : Установленный внешний ASPI-интерфейс
Выходной формат : Внутренние WAV-операции
Формат сэмплов : 44.100 Гц; 16 бит; стерео
Смещение при сжатии : 0
TOC извлечённого CD
Трек | Старт | Длительность | Начальный сектор | Конечный сектор
---------------------------------------------------------------------
1 | 0:00.01 | 6:20.08 | 1 | 28508
2 | 6:20.09 | 6:34.64 | 28509 | 58122
3 | 12:54.73 | 6:22.45 | 58123 | 86817
4 | 19:17.43 | 5:40.04 | 86818 | 112321
5 | 24:57.47 | 5:45.50 | 112322 | 138246
6 | 30:43.22 | 5:58.59 | 138247 | 165155
7 | 36:42.06 | 5:40.33 | 165156 | 190688
8 | 42:22.39 | 7:05.07 | 190689 | 222570
Характеристики диапазона извлечения и сообщения об ошибках
Выбранный диапазон
Имя файла C:\Downloads\Various - The Best Of Italo Disco\The Best Of Italo Disco, Vol.4\Various - The Best Of Italo Disco Vol.4 CD1.wav
Пиковый уровень 100.0 %
Качество диапазона 100.0 %
CRC теста BDE8FF8F
CRC копии BDE8FF8F
Копирование... OK
Ошибок не произошло
AccurateRip: сводка
Трек 1 нет в базе данных
Трек 2 нет в базе данных
Трек 3 нет в базе данных
Трек 4 нет в базе данных
Трек 5 нет в базе данных
Трек 6 нет в базе данных
Трек 7 нет в базе данных
Трек 8 нет в базе данных
Ни одного трека нет в базе AccurateRip
Конец отчёта
 Exact Audio Copy V0.99 prebeta 5 from 4. May 2009
Отчёт EAC об извлечении, выполненном 6. февраля 2010, 14:30
Various / The Best Of Italo Disco Vol.4 CD2
Дисковод: HL-DT-STDVD-RAM GH22NS30 Adapter: 2 ID: 0
Режим чтения : Достоверность
Использование точного потока : Да
Отключение кэша аудио : Да
Использование указателей C2 : Нет
Коррекция смещения при чтении : 102
Способность читать области Lead-in и Lead-out : Нет
Заполнение пропущенных сэмплов тишиной : Да
Удаление блоков с тишиной в начале и конце : Нет
При вычислениях CRC использовались нулевые сэмплы : Да
Интерфейс : Установленный внешний ASPI-интерфейс
Выходной формат : Внутренние WAV-операции
Формат сэмплов : 44.100 Гц; 16 бит; стерео
Смещение при сжатии : 0
TOC извлечённого CD
Трек | Старт | Длительность | Начальный сектор | Конечный сектор
---------------------------------------------------------------------
1 | 0:00.01 | 5:33.24 | 1 | 24999
2 | 5:33.25 | 6:01.48 | 25000 | 52122
3 | 11:34.73 | 8:58.03 | 52123 | 92475
4 | 20:33.01 | 5:12.09 | 92476 | 115884
5 | 25:45.10 | 5:58.71 | 115885 | 142805
6 | 31:44.06 | 7:11.58 | 142806 | 175188
7 | 38:55.64 | 6:14.55 | 175189 | 203293
8 | 45:10.44 | 5:55.61 | 203294 | 229979
Характеристики диапазона извлечения и сообщения об ошибках
Выбранный диапазон
Имя файла C:\Downloads\Various - The Best Of Italo Disco\The Best Of Italo Disco, Vol.4\Various - The Best Of Italo Disco Vol.4 CD2.wav
Пиковый уровень 100.0 %
Качество диапазона 100.0 %
CRC теста 44D25F3B
CRC копии 44D25F3B
Копирование... OK
Ошибок не произошло
AccurateRip: сводка
Трек 1 нет в базе данных
Трек 2 нет в базе данных
Трек 3 нет в базе данных
Трек 4 нет в базе данных
Трек 5 нет в базе данных
Трек 6 нет в базе данных
Трек 7 нет в базе данных
Трек 8 нет в базе данных
Ни одного трека нет в базе AccurateRip
Конец отчёта
 Exact Audio Copy V0.99 prebeta 5 from 4. May 2009
Отчёт EAC об извлечении, выполненном 27. января 2010, 21:44
Various / The Best Of Italo Disco Vol.5 CD1
Дисковод: HL-DT-STDVD-RAM GH22NS30 Adapter: 2 ID: 0
Режим чтения : Достоверность
Использование точного потока : Да
Отключение кэша аудио : Да
Использование указателей C2 : Нет
Коррекция смещения при чтении : 102
Способность читать области Lead-in и Lead-out : Нет
Заполнение пропущенных сэмплов тишиной : Да
Удаление блоков с тишиной в начале и конце : Нет
При вычислениях CRC использовались нулевые сэмплы : Да
Интерфейс : Установленный внешний ASPI-интерфейс
Выходной формат : Внутренние WAV-операции
Формат сэмплов : 44.100 Гц; 16 бит; стерео
Смещение при сжатии : 0
TOC извлечённого CD
Трек | Старт | Длительность | Начальный сектор | Конечный сектор
---------------------------------------------------------------------
1 | 0:00.00 | 6:14.31 | 0 | 28080
2 | 6:14.31 | 6:05.02 | 28081 | 55457
3 | 12:19.33 | 6:00.16 | 55458 | 82473
4 | 18:19.49 | 7:30.01 | 82474 | 116224
5 | 25:49.50 | 6:16.10 | 116225 | 144434
6 | 32:05.60 | 4:45.60 | 144435 | 165869
7 | 36:51.45 | 6:46.32 | 165870 | 196351
8 | 43:38.02 | 6:42.00 | 196352 | 226501
Характеристики диапазона извлечения и сообщения об ошибках
Выбранный диапазон
Имя файла C:\Music\The Best Of Italo Disco, Vol.5\Various - The Best Of Italo Disco Vol.5 CD1.wav
Пиковый уровень 100.0 %
Качество диапазона 100.0 %
CRC теста F201983D
CRC копии F201983D
Копирование... OK
Ошибок не произошло
AccurateRip: сводка
Трек 1 нет в базе данных
Трек 2 нет в базе данных
Трек 3 нет в базе данных
Трек 4 нет в базе данных
Трек 5 точное извлечение (доверие 2) [970DEF4D]
Трек 6 нет в базе данных
Трек 7 нет в базе данных
Трек 8 нет в базе данных
1 трек(и) скопированы точно
7 трек(и) не содержатся в базе AccurateRip
Некоторые треки не прошли проверку на точность
Конец отчёта
 Exact Audio Copy V0.99 prebeta 5 from 4. May 2009
Отчёт EAC об извлечении, выполненном 28. января 2010, 6:20
Various / The Best Of Italo Disco Vol.5 CD2
Дисковод: HL-DT-STDVD-RAM GH22NS30 Adapter: 2 ID: 0
Режим чтения : Достоверность
Использование точного потока : Да
Отключение кэша аудио : Да
Использование указателей C2 : Нет
Коррекция смещения при чтении : 102
Способность читать области Lead-in и Lead-out : Нет
Заполнение пропущенных сэмплов тишиной : Да
Удаление блоков с тишиной в начале и конце : Нет
При вычислениях CRC использовались нулевые сэмплы : Да
Интерфейс : Установленный внешний ASPI-интерфейс
Выходной формат : Внутренние WAV-операции
Формат сэмплов : 44.100 Гц; 16 бит; стерео
Смещение при сжатии : 0
TOC извлечённого CD
Трек | Старт | Длительность | Начальный сектор | Конечный сектор
---------------------------------------------------------------------
1 | 0:00.00 | 5:50.31 | 0 | 26280
2 | 5:50.31 | 5:36.54 | 26281 | 51534
3 | 11:27.10 | 5:48.61 | 51535 | 77695
4 | 17:15.71 | 6:34.30 | 77696 | 107275
5 | 23:50.26 | 5:52.02 | 107276 | 133677
6 | 29:42.28 | 6:44.24 | 133678 | 164001
7 | 36:26.52 | 7:00.69 | 164002 | 195570
8 | 43:27.46 | 5:11.35 | 195571 | 218930
9 | 48:39.06 | 6:36.69 | 218931 | 248699
Характеристики диапазона извлечения и сообщения об ошибках
Выбранный диапазон
Имя файла C:\Music\The Best Of Italo Disco, Vol.5\Various - The Best Of Italo Disco Vol.5 CD2.wav
Пиковый уровень 100.0 %
Качество диапазона 99.9 %
CRC теста 60B1EB14
CRC копии 60B1EB14
Копирование... OK
Ошибок не произошло
AccurateRip: сводка
Трек 1 нет в базе данных
Трек 2 нет в базе данных
Трек 3 нет в базе данных
Трек 4 нет в базе данных
Трек 5 нет в базе данных
Трек 6 нет в базе данных
Трек 7 нет в базе данных
Трек 8 нет в базе данных
Трек 9 нет в базе данных
Ни одного трека нет в базе AccurateRip
Конец отчёта
 Exact Audio Copy V0.99 prebeta 5 from 4. May 2009
Отчёт EAC об извлечении, выполненном 28. января 2010, 20:42
Various / The Best Of Italo Disco Vol.6 CD1
Дисковод: HL-DT-STDVD-RAM GH22NS30 Adapter: 2 ID: 0
Режим чтения : Достоверность
Использование точного потока : Да
Отключение кэша аудио : Да
Использование указателей C2 : Нет
Коррекция смещения при чтении : 102
Способность читать области Lead-in и Lead-out : Нет
Заполнение пропущенных сэмплов тишиной : Да
Удаление блоков с тишиной в начале и конце : Нет
При вычислениях CRC использовались нулевые сэмплы : Да
Интерфейс : Установленный внешний ASPI-интерфейс
Выходной формат : Внутренние WAV-операции
Формат сэмплов : 44.100 Гц; 16 бит; стерео
Смещение при сжатии : 0
TOC извлечённого CD
Трек | Старт | Длительность | Начальный сектор | Конечный сектор
---------------------------------------------------------------------
1 | 0:00.00 | 4:57.47 | 0 | 22321
2 | 4:57.47 | 6:43.50 | 22322 | 52596
3 | 11:41.22 | 7:01.30 | 52597 | 84201
4 | 18:42.52 | 7:12.16 | 84202 | 116617
5 | 25:54.68 | 7:14.44 | 116618 | 149211
6 | 33:09.37 | 4:46.02 | 149212 | 170663
7 | 37:55.39 | 7:03.17 | 170664 | 202405
8 | 44:58.56 | 6:43.26 | 202406 | 232656
Характеристики диапазона извлечения и сообщения об ошибках
Выбранный диапазон
Имя файла C:\Music\The Best Of Italo Disco, Vol.6\Various - The Best Of Italo Disco Vol.6 CD1.wav
Пиковый уровень 90.1 %
Качество диапазона 100.0 %
CRC теста 514F604E
CRC копии 514F604E
Копирование... OK
Ошибок не произошло
AccurateRip: сводка
Трек 1 нет в базе данных
Трек 2 нет в базе данных
Трек 3 нет в базе данных
Трек 4 нет в базе данных
Трек 5 нет в базе данных
Трек 6 нет в базе данных
Трек 7 нет в базе данных
Трек 8 нет в базе данных
Ни одного трека нет в базе AccurateRip
Конец отчёта
 Exact Audio Copy V0.99 prebeta 5 from 4. May 2009
Отчёт EAC об извлечении, выполненном 28. января 2010, 21:45
Various / The Best Of Italo Disco Vol.6 CD2
Дисковод: HL-DT-STDVD-RAM GH22NS30 Adapter: 2 ID: 0
Режим чтения : Достоверность
Использование точного потока : Да
Отключение кэша аудио : Да
Использование указателей C2 : Нет
Коррекция смещения при чтении : 102
Способность читать области Lead-in и Lead-out : Нет
Заполнение пропущенных сэмплов тишиной : Да
Удаление блоков с тишиной в начале и конце : Нет
При вычислениях CRC использовались нулевые сэмплы : Да
Интерфейс : Установленный внешний ASPI-интерфейс
Выходной формат : Внутренние WAV-операции
Формат сэмплов : 44.100 Гц; 16 бит; стерео
Смещение при сжатии : 0
TOC извлечённого CD
Трек | Старт | Длительность | Начальный сектор | Конечный сектор
---------------------------------------------------------------------
1 | 0:00.00 | 5:43.20 | 0 | 25744
2 | 5:43.20 | 6:38.50 | 25745 | 55644
3 | 12:21.70 | 6:15.17 | 55645 | 83786
4 | 18:37.12 | 5:44.12 | 83787 | 109598
5 | 24:21.24 | 4:57.65 | 109599 | 131938
6 | 29:19.14 | 6:30.34 | 131939 | 161222
7 | 35:49.48 | 5:29.45 | 161223 | 185942
8 | 41:19.18 | 6:35.74 | 185943 | 215641
Характеристики диапазона извлечения и сообщения об ошибках
Выбранный диапазон
Имя файла C:\Music\The Best Of Italo Disco, Vol.6\Various - The Best Of Italo Disco Vol.6 CD2.wav
Пиковый уровень 90.1 %
Качество диапазона 100.0 %
CRC теста 121F8DCB
CRC копии 121F8DCB
Копирование... OK
Ошибок не произошло
AccurateRip: сводка
Трек 1 нет в базе данных
Трек 2 нет в базе данных
Трек 3 нет в базе данных
Трек 4 нет в базе данных
Трек 5 нет в базе данных
Трек 6 нет в базе данных
Трек 7 нет в базе данных
Трек 8 нет в базе данных
Ни одного трека нет в базе AccurateRip
Конец отчёта
 Exact Audio Copy V0.99 prebeta 5 from 4. May 2009
Отчёт EAC об извлечении, выполненном 28. января 2010, 22:36
Various / The Best Of Italo Disco Vol.7 CD1
Дисковод: HL-DT-STDVD-RAM GH22NS30 Adapter: 2 ID: 0
Режим чтения : Достоверность
Использование точного потока : Да
Отключение кэша аудио : Да
Использование указателей C2 : Нет
Коррекция смещения при чтении : 102
Способность читать области Lead-in и Lead-out : Нет
Заполнение пропущенных сэмплов тишиной : Да
Удаление блоков с тишиной в начале и конце : Нет
При вычислениях CRC использовались нулевые сэмплы : Да
Интерфейс : Установленный внешний ASPI-интерфейс
Выходной формат : Внутренние WAV-операции
Формат сэмплов : 44.100 Гц; 16 бит; стерео
Смещение при сжатии : 0
TOC извлечённого CD
Трек | Старт | Длительность | Начальный сектор | Конечный сектор
---------------------------------------------------------------------
1 | 0:00.00 | 6:24.74 | 0 | 28873
2 | 6:24.74 | 5:37.13 | 28874 | 54161
3 | 12:02.12 | 6:35.65 | 54162 | 83851
4 | 18:38.02 | 5:23.33 | 83852 | 108109
5 | 24:01.35 | 5:57.44 | 108110 | 134928
6 | 29:59.04 | 5:35.66 | 134929 | 160119
7 | 35:34.70 | 6:09.37 | 160120 | 187831
8 | 41:44.32 | 5:37.28 | 187832 | 213134
Характеристики диапазона извлечения и сообщения об ошибках
Выбранный диапазон
Имя файла C:\Music\The Best Of Italo Disco, Vol.7\Various - The Best Of Italo Disco Vol.7 CD1.wav
Пиковый уровень 98.0 %
Качество диапазона 99.9 %
CRC теста D29FD96A
CRC копии D29FD96A
Копирование... OK
Ошибок не произошло
AccurateRip: сводка
Трек 1 нет в базе данных
Трек 2 нет в базе данных
Трек 3 нет в базе данных
Трек 4 нет в базе данных
Трек 5 нет в базе данных
Трек 6 нет в базе данных
Трек 7 нет в базе данных
Трек 8 нет в базе данных
Ни одного трека нет в базе AccurateRip
Конец отчёта
 Exact Audio Copy V0.99 prebeta 5 from 4. May 2009
Отчёт EAC об извлечении, выполненном 28. января 2010, 23:53
Various / The Best Of Italo Disco Vol.7 CD2
Дисковод: HL-DT-STDVD-RAM GH22NS30 Adapter: 2 ID: 0
Режим чтения : Достоверность
Использование точного потока : Да
Отключение кэша аудио : Да
Использование указателей C2 : Нет
Коррекция смещения при чтении : 102
Способность читать области Lead-in и Lead-out : Нет
Заполнение пропущенных сэмплов тишиной : Да
Удаление блоков с тишиной в начале и конце : Нет
При вычислениях CRC использовались нулевые сэмплы : Да
Интерфейс : Установленный внешний ASPI-интерфейс
Выходной формат : Внутренние WAV-операции
Формат сэмплов : 44.100 Гц; 16 бит; стерео
Смещение при сжатии : 0
TOC извлечённого CD
Трек | Старт | Длительность | Начальный сектор | Конечный сектор
---------------------------------------------------------------------
1 | 0:00.00 | 6:06.24 | 0 | 27473
2 | 6:06.24 | 6:05.58 | 27474 | 54906
3 | 12:12.07 | 6:55.34 | 54907 | 86065
4 | 19:07.41 | 5:07.14 | 86066 | 109104
5 | 24:14.55 | 5:08.49 | 109105 | 132253
6 | 29:23.29 | 6:10.00 | 132254 | 160003
7 | 35:33.29 | 5:18.70 | 160004 | 183923
8 | 40:52.24 | 5:43.07 | 183924 | 209655
Характеристики диапазона извлечения и сообщения об ошибках
Выбранный диапазон
Имя файла C:\Music\The Best Of Italo Disco, Vol.7\Various - The Best Of Italo Disco Vol.7 CD2.wav
Пиковый уровень 98.0 %
Качество диапазона 100.0 %
CRC теста 211992C8
CRC копии 211992C8
Копирование... OK
Ошибок не произошло
AccurateRip: сводка
Трек 1 нет в базе данных
Трек 2 нет в базе данных
Трек 3 нет в базе данных
Трек 4 нет в базе данных
Трек 5 нет в базе данных
Трек 6 нет в базе данных
Трек 7 нет в базе данных
Трек 8 нет в базе данных
Ни одного трека нет в базе AccurateRip
Конец отчёта
 Exact Audio Copy V0.99 prebeta 5 from 4. May 2009
Отчёт EAC об извлечении, выполненном 24. января 2010, 20:56
Various / The Best Of Italo Disco Vol.8 CD1
Дисковод: HL-DT-STDVD-RAM GH22NS30 Adapter: 2 ID: 0
Режим чтения : Достоверность
Использование точного потока : Да
Отключение кэша аудио : Да
Использование указателей C2 : Нет
Коррекция смещения при чтении : 102
Способность читать области Lead-in и Lead-out : Нет
Заполнение пропущенных сэмплов тишиной : Да
Удаление блоков с тишиной в начале и конце : Нет
При вычислениях CRC использовались нулевые сэмплы : Да
Интерфейс : Установленный внешний ASPI-интерфейс
Выходной формат : Внутренние WAV-операции
Формат сэмплов : 44.100 Гц; 16 бит; стерео
Смещение при сжатии : 0
TOC извлечённого CD
Трек | Старт | Длительность | Начальный сектор | Конечный сектор
---------------------------------------------------------------------
1 | 0:00.00 | 5:36.04 | 0 | 25203
2 | 5:36.04 | 5:57.61 | 25204 | 52039
3 | 11:33.65 | 5:55.15 | 52040 | 78679
4 | 17:29.05 | 8:43.59 | 78680 | 117963
5 | 26:12.64 | 5:49.24 | 117964 | 144162
6 | 32:02.13 | 7:37.05 | 144163 | 178442
7 | 39:39.18 | 6:25.74 | 178443 | 207391
8 | 46:05.17 | 7:31.50 | 207392 | 241266
Характеристики диапазона извлечения и сообщения об ошибках
Выбранный диапазон
Имя файла C:\Downloads\Various - The Best Of Italo Disco, Vol.8\Various - The Best Of Italo Disco Vol.8 CD1.wav
Пиковый уровень 85.3 %
Качество диапазона 100.0 %
CRC теста FD273261
CRC копии FD273261
Копирование... OK
Ошибок не произошло
AccurateRip: сводка
Трек 1 нет в базе данных
Трек 2 нет в базе данных
Трек 3 нет в базе данных
Трек 4 нет в базе данных
Трек 5 нет в базе данных
Трек 6 нет в базе данных
Трек 7 нет в базе данных
Трек 8 нет в базе данных
Ни одного трека нет в базе AccurateRip
Конец отчёта
 Exact Audio Copy V0.99 prebeta 5 from 4. May 2009
Отчёт EAC об извлечении, выполненном 25. января 2010, 4:52
Various / The Best Of Italo Disco Vol.8 CD2
Дисковод: HL-DT-STDVD-RAM GH22NS30 Adapter: 2 ID: 0
Режим чтения : Достоверность
Использование точного потока : Да
Отключение кэша аудио : Да
Использование указателей C2 : Нет
Коррекция смещения при чтении : 102
Способность читать области Lead-in и Lead-out : Нет
Заполнение пропущенных сэмплов тишиной : Да
Удаление блоков с тишиной в начале и конце : Нет
При вычислениях CRC использовались нулевые сэмплы : Да
Интерфейс : Установленный внешний ASPI-интерфейс
Выходной формат : Внутренние WAV-операции
Формат сэмплов : 44.100 Гц; 16 бит; стерео
Смещение при сжатии : 0
TOC извлечённого CD
Трек | Старт | Длительность | Начальный сектор | Конечный сектор
---------------------------------------------------------------------
1 | 0:00.00 | 6:01.62 | 0 | 27136
2 | 6:01.62 | 7:01.30 | 27137 | 58741
3 | 13:03.17 | 6:58.41 | 58742 | 90132
4 | 20:01.58 | 6:03.34 | 90133 | 117391
5 | 26:05.17 | 5:42.31 | 117392 | 143072
6 | 31:47.48 | 7:04.46 | 143073 | 174918
7 | 38:52.19 | 6:15.38 | 174919 | 203081
8 | 45:07.57 | 7:10.56 | 203082 | 235387
Характеристики диапазона извлечения и сообщения об ошибках
Выбранный диапазон
Имя файла C:\Downloads\Various - The Best Of Italo Disco, Vol.8\Various - The Best Of Italo Disco Vol.8 CD2.wav
Пиковый уровень 79.2 %
Качество диапазона 100.0 %
CRC теста C126B573
CRC копии C126B573
Копирование... OK
Ошибок не произошло
AccurateRip: сводка
Трек 1 нет в базе данных
Трек 2 нет в базе данных
Трек 3 нет в базе данных
Трек 4 нет в базе данных
Трек 5 нет в базе данных
Трек 6 нет в базе данных
Трек 7 нет в базе данных
Трек 8 нет в базе данных
Ни одного трека нет в базе AccurateRip
Конец отчёта
 Exact Audio Copy V0.99 prebeta 5 from 4. May 2009
Отчёт EAC об извлечении, выполненном 29. января 2010, 13:22
Various / The Best Of Italo Disco Vol.9 CD1
Дисковод: HL-DT-STDVD-RAM GH22NS30 Adapter: 2 ID: 0
Режим чтения : Достоверность
Использование точного потока : Да
Отключение кэша аудио : Да
Использование указателей C2 : Нет
Коррекция смещения при чтении : 102
Способность читать области Lead-in и Lead-out : Нет
Заполнение пропущенных сэмплов тишиной : Да
Удаление блоков с тишиной в начале и конце : Нет
При вычислениях CRC использовались нулевые сэмплы : Да
Интерфейс : Установленный внешний ASPI-интерфейс
Выходной формат : Внутренние WAV-операции
Формат сэмплов : 44.100 Гц; 16 бит; стерео
Смещение при сжатии : 0
TOC извлечённого CD
Трек | Старт | Длительность | Начальный сектор | Конечный сектор
---------------------------------------------------------------------
1 | 0:00.00 | 6:05.35 | 0 | 27409
2 | 6:05.35 | 6:47.35 | 27410 | 57969
3 | 12:52.70 | 5:34.45 | 57970 | 83064
4 | 18:27.40 | 7:28.10 | 83065 | 116674
5 | 25:55.50 | 5:11.32 | 116675 | 140031
6 | 31:07.07 | 6:00.15 | 140032 | 167046
7 | 37:07.22 | 5:03.18 | 167047 | 189789
8 | 42:10.40 | 5:54.07 | 189790 | 216346
Характеристики диапазона извлечения и сообщения об ошибках
Выбранный диапазон
Имя файла C:\Music\The Best Of Italo Disco, Vol.9\Various - The Best Of Italo Disco Vol.9 CD1.wav
Пиковый уровень 99.9 %
Качество диапазона 99.9 %
CRC теста A2EE5548
CRC копии A2EE5548
Копирование... OK
Ошибок не произошло
AccurateRip: сводка
Трек 1 нет в базе данных
Трек 2 нет в базе данных
Трек 3 нет в базе данных
Трек 4 нет в базе данных
Трек 5 нет в базе данных
Трек 6 нет в базе данных
Трек 7 нет в базе данных
Трек 8 нет в базе данных
Ни одного трека нет в базе AccurateRip
Конец отчёта
 Exact Audio Copy V0.99 prebeta 5 from 4. May 2009
Отчёт EAC об извлечении, выполненном 29. января 2010, 17:57
Various / The Best Of Italo Disco Vol.9 CD2
Дисковод: HL-DT-STDVD-RAM GH22NS30 Adapter: 2 ID: 0
Режим чтения : Достоверность
Использование точного потока : Да
Отключение кэша аудио : Да
Использование указателей C2 : Нет
Коррекция смещения при чтении : 102
Способность читать области Lead-in и Lead-out : Нет
Заполнение пропущенных сэмплов тишиной : Да
Удаление блоков с тишиной в начале и конце : Нет
При вычислениях CRC использовались нулевые сэмплы : Да
Интерфейс : Установленный внешний ASPI-интерфейс
Выходной формат : Внутренние WAV-операции
Формат сэмплов : 44.100 Гц; 16 бит; стерео
Смещение при сжатии : 0
TOC извлечённого CD
Трек | Старт | Длительность | Начальный сектор | Конечный сектор
---------------------------------------------------------------------
1 | 0:00.00 | 3:52.66 | 0 | 17465
2 | 3:52.66 | 5:20.34 | 17466 | 41499
3 | 9:13.25 | 6:56.33 | 41500 | 72732
4 | 16:09.58 | 8:35.45 | 72733 | 111402
5 | 24:45.28 | 6:46.17 | 111403 | 141869
6 | 31:31.45 | 5:53.39 | 141870 | 168383
7 | 37:25.09 | 5:20.62 | 168384 | 192445
8 | 42:45.71 | 6:51.69 | 192446 | 223339
Характеристики диапазона извлечения и сообщения об ошибках
Выбранный диапазон
Имя файла C:\Music\The Best Of Italo Disco, Vol.9\Various - The Best Of Italo Disco Vol.9 CD2.wav
Пиковый уровень 99.9 %
Качество диапазона 100.0 %
CRC теста D9C46895
CRC копии D9C46895
Копирование... OK
Ошибок не произошло
AccurateRip: сводка
Трек 1 нет в базе данных
Трек 2 нет в базе данных
Трек 3 нет в базе данных
Трек 4 нет в базе данных
Трек 5 нет в базе данных
Трек 6 нет в базе данных
Трек 7 нет в базе данных
Трек 8 нет в базе данных
Ни одного трека нет в базе AccurateRip
Конец отчёта
 Exact Audio Copy V0.99 prebeta 5 from 4. May 2009
Отчёт EAC об извлечении, выполненном 29. января 2010, 19:01
Various / The Best Of Italo Disco Vol.10 CD1
Дисковод: HL-DT-STDVD-RAM GH22NS30 Adapter: 2 ID: 0
Режим чтения : Достоверность
Использование точного потока : Да
Отключение кэша аудио : Да
Использование указателей C2 : Нет
Коррекция смещения при чтении : 102
Способность читать области Lead-in и Lead-out : Нет
Заполнение пропущенных сэмплов тишиной : Да
Удаление блоков с тишиной в начале и конце : Нет
При вычислениях CRC использовались нулевые сэмплы : Да
Интерфейс : Установленный внешний ASPI-интерфейс
Выходной формат : Внутренние WAV-операции
Формат сэмплов : 44.100 Гц; 16 бит; стерео
Смещение при сжатии : 0
TOC извлечённого CD
Трек | Старт | Длительность | Начальный сектор | Конечный сектор
---------------------------------------------------------------------
1 | 0:00.00 | 5:19.10 | 0 | 23934
2 | 5:19.10 | 6:09.52 | 23935 | 51661
3 | 11:28.62 | 5:50.20 | 51662 | 77931
4 | 17:19.07 | 7:35.13 | 77932 | 112069
5 | 24:54.20 | 6:05.33 | 112070 | 139477
6 | 30:59.53 | 6:50.46 | 139478 | 170273
7 | 37:50.24 | 6:20.46 | 170274 | 198819
8 | 44:10.70 | 6:13.08 | 198820 | 226802
Характеристики диапазона извлечения и сообщения об ошибках
Выбранный диапазон
Имя файла C:\Music\The Best Of Italo Disco, Vol.10\Various - The Best Of Italo Disco Vol.10 CD1.wav
Пиковый уровень 100.0 %
Качество диапазона 100.0 %
CRC теста 7C74C3EE
CRC копии 7C74C3EE
Копирование... OK
Ошибок не произошло
AccurateRip: сводка
Трек 1 нет в базе данных
Трек 2 нет в базе данных
Трек 3 нет в базе данных
Трек 4 нет в базе данных
Трек 5 нет в базе данных
Трек 6 нет в базе данных
Трек 7 нет в базе данных
Трек 8 нет в базе данных
Ни одного трека нет в базе AccurateRip
Конец отчёта
 Exact Audio Copy V0.99 prebeta 5 from 4. May 2009
Отчёт EAC об извлечении, выполненном 29. января 2010, 19:45
Various / The Best Of Italo Disco Vol.10 CD2
Дисковод: HL-DT-STDVD-RAM GH22NS30 Adapter: 2 ID: 0
Режим чтения : Достоверность
Использование точного потока : Да
Отключение кэша аудио : Да
Использование указателей C2 : Нет
Коррекция смещения при чтении : 102
Способность читать области Lead-in и Lead-out : Нет
Заполнение пропущенных сэмплов тишиной : Да
Удаление блоков с тишиной в начале и конце : Нет
При вычислениях CRC использовались нулевые сэмплы : Да
Интерфейс : Установленный внешний ASPI-интерфейс
Выходной формат : Внутренние WAV-операции
Формат сэмплов : 44.100 Гц; 16 бит; стерео
Смещение при сжатии : 0
TOC извлечённого CD
Трек | Старт | Длительность | Начальный сектор | Конечный сектор
---------------------------------------------------------------------
1 | 0:00.00 | 6:21.65 | 0 | 28639
2 | 6:21.65 | 5:41.41 | 28640 | 54255
3 | 12:03.31 | 5:49.30 | 54256 | 80460
4 | 17:52.61 | 6:31.37 | 80461 | 109822
5 | 24:24.23 | 5:41.46 | 109823 | 135443
6 | 30:05.69 | 6:49.41 | 135444 | 166159
7 | 36:55.35 | 5:06.69 | 166160 | 189178
8 | 42:02.29 | 6:05.62 | 189179 | 216615
Характеристики диапазона извлечения и сообщения об ошибках
Выбранный диапазон
Имя файла C:\Music\The Best Of Italo Disco, Vol.10\Various - The Best Of Italo Disco Vol.10 CD2.wav
Пиковый уровень 100.0 %
Качество диапазона 100.0 %
CRC теста 87A68BCE
CRC копии 87A68BCE
Копирование... OK
Ошибок не произошло
AccurateRip: сводка
Трек 1 нет в базе данных
Трек 2 нет в базе данных
Трек 3 нет в базе данных
Трек 4 нет в базе данных
Трек 5 нет в базе данных
Трек 6 нет в базе данных
Трек 7 нет в базе данных
Трек 8 нет в базе данных
Ни одного трека нет в базе AccurateRip
Конец отчёта
 Exact Audio Copy V0.99 prebeta 5 from 4. May 2009
Отчёт EAC об извлечении, выполненном 25. января 2010, 20:18
Various / The Best Of Italo Disco Vol.11 CD1
Дисковод: HL-DT-STDVD-RAM GH22NS30 Adapter: 2 ID: 0
Режим чтения : Достоверность
Использование точного потока : Да
Отключение кэша аудио : Да
Использование указателей C2 : Нет
Коррекция смещения при чтении : 102
Способность читать области Lead-in и Lead-out : Нет
Заполнение пропущенных сэмплов тишиной : Да
Удаление блоков с тишиной в начале и конце : Нет
При вычислениях CRC использовались нулевые сэмплы : Да
Интерфейс : Установленный внешний ASPI-интерфейс
Выходной формат : Внутренние WAV-операции
Формат сэмплов : 44.100 Гц; 16 бит; стерео
Смещение при сжатии : 0
TOC извлечённого CD
Трек | Старт | Длительность | Начальный сектор | Конечный сектор
---------------------------------------------------------------------
1 | 0:00.00 | 6:59.37 | 0 | 31461
2 | 6:59.37 | 9:08.46 | 31462 | 72607
3 | 16:08.08 | 4:36.00 | 72608 | 93307
4 | 20:44.08 | 5:52.33 | 93308 | 119740
5 | 26:36.41 | 8:35.10 | 119741 | 158375
6 | 35:11.51 | 5:44.63 | 158376 | 184238
7 | 40:56.39 | 5:32.48 | 184239 | 209186
8 | 46:29.12 | 4:59.48 | 209187 | 231659
Характеристики диапазона извлечения и сообщения об ошибках
Выбранный диапазон
Имя файла C:\Downloads\Various - The Best Of Italo Disco, Vol.11\Various - The Best Of Italo Disco Vol.11 CD1.wav
Пиковый уровень 100.0 %
Качество диапазона 100.0 %
CRC теста BBCF8E28
CRC копии BBCF8E28
Копирование... OK
Ошибок не произошло
AccurateRip: сводка
Трек 1 нет в базе данных
Трек 2 нет в базе данных
Трек 3 нет в базе данных
Трек 4 нет в базе данных
Трек 5 нет в базе данных
Трек 6 нет в базе данных
Трек 7 нет в базе данных
Трек 8 нет в базе данных
Ни одного трека нет в базе AccurateRip
Конец отчёта
 Exact Audio Copy V0.99 prebeta 5 from 4. May 2009
Отчёт EAC об извлечении, выполненном 25. января 2010, 21:04
Various / The Best Of Italo Disco Vol.11 CD2
Дисковод: HL-DT-STDVD-RAM GH22NS30 Adapter: 2 ID: 0
Режим чтения : Достоверность
Использование точного потока : Да
Отключение кэша аудио : Да
Использование указателей C2 : Нет
Коррекция смещения при чтении : 102
Способность читать области Lead-in и Lead-out : Нет
Заполнение пропущенных сэмплов тишиной : Да
Удаление блоков с тишиной в начале и конце : Нет
При вычислениях CRC использовались нулевые сэмплы : Да
Интерфейс : Установленный внешний ASPI-интерфейс
Выходной формат : Внутренние WAV-операции
Формат сэмплов : 44.100 Гц; 16 бит; стерео
Смещение при сжатии : 0
TOC извлечённого CD
Трек | Старт | Длительность | Начальный сектор | Конечный сектор
---------------------------------------------------------------------
1 | 0:00.00 | 6:59.45 | 0 | 31469
2 | 6:59.45 | 6:32.67 | 31470 | 60936
3 | 13:32.37 | 5:54.14 | 60937 | 87500
4 | 19:26.51 | 6:24.36 | 87501 | 116336
5 | 25:51.12 | 5:53.40 | 116337 | 142851
6 | 31:44.52 | 6:25.50 | 142852 | 171776
7 | 38:10.27 | 5:27.65 | 171777 | 196366
8 | 43:38.17 | 6:17.60 | 196367 | 224701
Характеристики диапазона извлечения и сообщения об ошибках
Выбранный диапазон
Имя файла C:\Downloads\Various - The Best Of Italo Disco, Vol.11\Various - The Best Of Italo Disco Vol.11 CD2.wav
Пиковый уровень 100.0 %
Качество диапазона 100.0 %
CRC теста C6F9FD51
CRC копии C6F9FD51
Копирование... OK
Ошибок не произошло
AccurateRip: сводка
Трек 1 нет в базе данных
Трек 2 нет в базе данных
Трек 3 нет в базе данных
Трек 4 нет в базе данных
Трек 5 нет в базе данных
Трек 6 нет в базе данных
Трек 7 нет в базе данных
Трек 8 нет в базе данных
Ни одного трека нет в базе AccurateRip
Конец отчёта
 Exact Audio Copy V0.99 prebeta 5 from 4. May 2009
Отчёт EAC об извлечении, выполненном 29. мая 2010, 2:11
Various / The Best Of Italo Disco Vol.13 CD1
Дисковод: HL-DT-STDVD-RAM GH22NS30 Adapter: 2 ID: 1
Режим чтения : Достоверность
Использование точного потока : Да
Отключение кэша аудио : Да
Использование указателей C2 : Нет
Коррекция смещения при чтении : 102
Способность читать области Lead-in и Lead-out : Нет
Заполнение пропущенных сэмплов тишиной : Да
Удаление блоков с тишиной в начале и конце : Нет
При вычислениях CRC использовались нулевые сэмплы : Да
Интерфейс : Установленный внешний ASPI-интерфейс
Выходной формат : Внутренние WAV-операции
Формат сэмплов : 44.100 Гц; 16 бит; стерео
Смещение при сжатии : 0
TOC извлечённого CD
Трек | Старт | Длительность | Начальный сектор | Конечный сектор
---------------------------------------------------------------------
1 | 0:00.00 | 6:08.36 | 0 | 27635
2 | 6:08.36 | 6:09.30 | 27636 | 55340
3 | 12:17.66 | 5:37.01 | 55341 | 80616
4 | 17:54.67 | 5:59.73 | 80617 | 107614
5 | 23:54.65 | 5:49.45 | 107615 | 133834
6 | 29:44.35 | 7:38.18 | 133835 | 168202
7 | 37:22.53 | 5:03.16 | 168203 | 190943
8 | 42:25.69 | 6:54.20 | 190944 | 222013
Характеристики диапазона извлечения и сообщения об ошибках
Выбранный диапазон
Имя файла C:\Downloads\Various - The Best Of Italo Disco\The Best Of Italo Disco, Vol.13\Various - The Best Of Italo Disco Vol.13 CD1.wav
Пиковый уровень 98.7 %
Качество диапазона 100.0 %
CRC теста 648336C6
CRC копии 648336C6
Копирование... OK
Ошибок не произошло
AccurateRip: сводка
Трек 1 нет в базе данных
Трек 2 нет в базе данных
Трек 3 нет в базе данных
Трек 4 нет в базе данных
Трек 5 нет в базе данных
Трек 6 нет в базе данных
Трек 7 нет в базе данных
Трек 8 нет в базе данных
Ни одного трека нет в базе AccurateRip
Конец отчёта
 Exact Audio Copy V0.99 prebeta 5 from 4. May 2009
Отчёт EAC об извлечении, выполненном 29. мая 2010, 2:49
Various / The Best Of Italo Disco Vol.13 CD2
Дисковод: HL-DT-STDVD-RAM GH22NS30 Adapter: 2 ID: 1
Режим чтения : Достоверность
Использование точного потока : Да
Отключение кэша аудио : Да
Использование указателей C2 : Нет
Коррекция смещения при чтении : 102
Способность читать области Lead-in и Lead-out : Нет
Заполнение пропущенных сэмплов тишиной : Да
Удаление блоков с тишиной в начале и конце : Нет
При вычислениях CRC использовались нулевые сэмплы : Да
Интерфейс : Установленный внешний ASPI-интерфейс
Выходной формат : Внутренние WAV-операции
Формат сэмплов : 44.100 Гц; 16 бит; стерео
Смещение при сжатии : 0
TOC извлечённого CD
Трек | Старт | Длительность | Начальный сектор | Конечный сектор
---------------------------------------------------------------------
1 | 0:00.00 | 9:37.00 | 0 | 43274
2 | 9:37.00 | 5:30.58 | 43275 | 68082
3 | 15:07.58 | 4:14.20 | 68083 | 87152
4 | 19:22.03 | 7:08.66 | 87153 | 119318
5 | 26:30.69 | 4:58.02 | 119319 | 141670
6 | 31:28.71 | 5:04.63 | 141671 | 164533
7 | 36:33.59 | 5:09.50 | 164534 | 187758
8 | 41:43.34 | 5:57.20 | 187759 | 214553
Характеристики диапазона извлечения и сообщения об ошибках
Выбранный диапазон
Имя файла C:\Downloads\Various - The Best Of Italo Disco\The Best Of Italo Disco, Vol.13\Various - The Best Of Italo Disco Vol.13 CD2.wav
Пиковый уровень 98.7 %
Качество диапазона 99.9 %
CRC теста 27310189
CRC копии 27310189
Копирование... OK
Ошибок не произошло
AccurateRip: сводка
Трек 1 нет в базе данных
Трек 2 нет в базе данных
Трек 3 нет в базе данных
Трек 4 нет в базе данных
Трек 5 нет в базе данных
Трек 6 нет в базе данных
Трек 7 нет в базе данных
Трек 8 нет в базе данных
Ни одного трека нет в базе AccurateRip
Конец отчёта

[7.68 GB] Скачать / Download