La Quinta Estacion - Directo desde Madrid (Bonus DVD) - Скачать

Страна: Spain
Жанр: Pop / Rock Latin
Продолжительность: 1:28:59 + 9:54
Год выпуска: 2007
Лейбл: Sony BMG Music Entertainment
Описание: "Directo desde Madrid" является вторым концертным альбомом испанской группы La Quinta Estación, в котором он содержит полную запись концерта в Мадриде. Concierto Realizado en el Teatro Apolo
Треклист:
00 Introducción
01 Cosa de Dos
02 El Amor No Duele
03 Esperaré Despierta
04 Nada
05 Rompe El Mar
06 Perdición
07 Algo Más
08 Flores De Alquiler
09 Me Muero
10 Por El Bulevar De Los Sueños Rotos/El Sol No Regresa (a dueto con Álvaro Urquijo)
11 Sueños Rotos
12 Para No Decirte Adiós
13 La Frase Tonta De La Semana (a dueto con Alex Ubago)
14 Que Fui Para Ti
15 Tu Peor Error
16 Daría (con Armando Ávila)
17 Niña
18 Créditos
Extras
Minutes before the concert

Разбивка на главы по трекам: есть
Качество: DVD5
Формат: DVD video
Видео кодек: MPEG2
Аудио кодек: AC3
Видео: PAL 4:3 (720x576) VBR
Аудио: Spanish (Dolby AC3, 2 ch) 192 kbps
Аудио2: Spanish (Dolby AC3, 5 ch) 320 kbps

cd, торрент, soundtrack, альбом, поп, pop, музыка, высокое качество, скачать, torrent, альбом, pop-music, трек, песни, lossless, download, дискография, композиции, бесплатно, поп-музыка, mp3

 General
Complete name : C:\Users\Marco\Documents\Rutracker_2\La Quinta Estacion - Directo Madrid\VIDEO_TS\VIDEO_TS.BUP
Format : DVD Video
Format profile : Menu
File size : 16.0 KiB
Overall bit rate mode : Variable
FileExtension_Invalid : ifo
Video
ID : 224 (0xE0)
Format : MPEG Video
Format version : Version 2
Bit rate mode : Variable
Width : 720 pixels
Height : 576 pixels
Display aspect ratio : 4:3
Frame rate : 25.000 FPS
Standard : PAL
Compression mode : Lossy
Text
Format : RLE
Format/Info : Run-length encoding
Bit depth : 2 bits
General
Complete name : C:\Users\Marco\Documents\Rutracker_2\La Quinta Estacion - Directo Madrid\VIDEO_TS\VIDEO_TS.IFO
Format : DVD Video
Format profile : Menu
File size : 16.0 KiB
Overall bit rate mode : Variable
Video
ID : 224 (0xE0)
Format : MPEG Video
Format version : Version 2
Bit rate mode : Variable
Width : 720 pixels
Height : 576 pixels
Display aspect ratio : 4:3
Frame rate : 25.000 FPS
Standard : PAL
Compression mode : Lossy
Text
Format : RLE
Format/Info : Run-length encoding
Bit depth : 2 bits
General
Complete name : C:\Users\Marco\Documents\Rutracker_2\La Quinta Estacion - Directo Madrid\VIDEO_TS\VIDEO_TS.VOB
Format : MPEG-PS
File size : 154 KiB
Duration : 600 ms
Overall bit rate : 2 103 kb/s
Video
ID : 224 (0xE0)
Format : MPEG Video
Format version : Version 2
Format profile : [email protected]
Format settings : CustomMatrix / BVOP
Format settings, BVOP : Yes
Format settings, Matrix : Custom
Format settings, picture structure : Frame
Duration : 600 ms
Bit rate mode : Constant
Maximum bit rate : 2 000 kb/s
Width : 720 pixels
Height : 576 pixels
Display aspect ratio : 4:3
Frame rate : 25.000 FPS
Standard : PAL
Color space : YUV
Chroma subsampling : 4:2:0
Bit depth : 8 bits
Scan type : Interlaced
Scan order : Top Field First
Compression mode : Lossy
Time code of first frame : 00:00:00:00
Time code source : Group of pictures header
Text
ID : 189 (0xBD)-32 (0x20)
Format : RLE
Format/Info : Run-length encoding
Muxing mode : DVD-Video
Menu
General
Complete name : C:\Users\Marco\Documents\Rutracker_2\La Quinta Estacion - Directo Madrid\VIDEO_TS\VTS_01_0.BUP
Format : DVD Video
Format profile : Program
File size : 78.0 KiB
Duration : 1 h 28 min
Overall bit rate mode : Variable
Overall bit rate : 120 b/s
FileExtension_Invalid : ifo
Video
ID : 224 (0xE0)
Format : MPEG Video
Format version : Version 2
Duration : 1 h 28 min
Bit rate mode : Variable
Width : 720 pixels
Height : 576 pixels
Display aspect ratio : 4:3
Frame rate : 25.000 FPS
Standard : PAL
Compression mode : Lossy
Audio #1
ID : 128 (0x80)
Format : AC-3
Format/Info : Audio Coding 3
Duration : 1 h 28 min
Channel(s) : 2 channels
Sampling rate : 48.0 kHz
Compression mode : Lossy
Audio #2
ID : 129 (0x81)
Format : AC-3
Format/Info : Audio Coding 3
Duration : 1 h 28 min
Channel(s) : 5 channels
Sampling rate : 48.0 kHz
Compression mode : Lossy
Menu #1
Duration : 1 h 28 min
00:00:00.000 : Chapter 1
00:01:18.240 : Chapter 2
00:04:49.440 : Chapter 3
00:08:10.560 : Chapter 4
00:14:34.080 : Chapter 5
00:18:15.840 : Chapter 6
00:23:24.960 : Chapter 7
00:28:21.600 : Chapter 8
00:36:05.760 : Chapter 9
00:42:17.760 : Chapter 10
00:46:48.480 : Chapter 11
00:53:27.840 : Chapter 12
00:58:52.320 : Chapter 13
01:02:46.080 : Chapter 14
01:08:47.520 : Chapter 15
01:13:49.440 : Chapter 16
01:16:46.080 : Chapter 17
01:22:45.120 : Chapter 18
01:27:28.320 : Chapter 19
List (Audio) : 0 / 1
Menu #2
Duration : 1 h 28 min
00:00:00.000 : Chapter 1
00:00:19.000 : Chapter 2
00:00:53.000 : Chapter 3
00:01:17.000 : Chapter 4
00:01:46.000 : Chapter 5
00:01:49.040 : Chapter 6
00:02:03.040 : Chapter 7
00:02:07.680 : Chapter 8
00:02:14.840 : Chapter 9
00:02:32.840 : Chapter 10
00:03:06.840 : Chapter 11
00:03:51.840 : Chapter 12
00:04:20.840 : Chapter 13
00:04:24.360 : Chapter 14
00:04:31.360 : Chapter 15
00:04:37.360 : Chapter 16
00:04:40.000 : Chapter 17
00:04:45.760 : Chapter 18
00:04:49.880 : Chapter 19
List (Audio) : 0 / 1
Menu #3
General
Complete name : C:\Users\Marco\Documents\Rutracker_2\La Quinta Estacion - Directo Madrid\VIDEO_TS\VTS_01_0.IFO
Format : DVD Video
Format profile : Program
File size : 78.0 KiB
Duration : 1 h 28 min
Overall bit rate mode : Variable
Overall bit rate : 120 b/s
Video
ID : 224 (0xE0)
Format : MPEG Video
Format version : Version 2
Duration : 1 h 28 min
Bit rate mode : Variable
Width : 720 pixels
Height : 576 pixels
Display aspect ratio : 4:3
Frame rate : 25.000 FPS
Standard : PAL
Compression mode : Lossy
Audio #1
ID : 128 (0x80)
Format : AC-3
Format/Info : Audio Coding 3
Duration : 1 h 28 min
Channel(s) : 2 channels
Sampling rate : 48.0 kHz
Compression mode : Lossy
Audio #2
ID : 129 (0x81)
Format : AC-3
Format/Info : Audio Coding 3
Duration : 1 h 28 min
Channel(s) : 5 channels
Sampling rate : 48.0 kHz
Compression mode : Lossy
Menu #1
Duration : 1 h 28 min
00:00:00.000 : Chapter 1
00:01:18.240 : Chapter 2
00:04:49.440 : Chapter 3
00:08:10.560 : Chapter 4
00:14:34.080 : Chapter 5
00:18:15.840 : Chapter 6
00:23:24.960 : Chapter 7
00:28:21.600 : Chapter 8
00:36:05.760 : Chapter 9
00:42:17.760 : Chapter 10
00:46:48.480 : Chapter 11
00:53:27.840 : Chapter 12
00:58:52.320 : Chapter 13
01:02:46.080 : Chapter 14
01:08:47.520 : Chapter 15
01:13:49.440 : Chapter 16
01:16:46.080 : Chapter 17
01:22:45.120 : Chapter 18
01:27:28.320 : Chapter 19
List (Audio) : 0 / 1
Menu #2
Duration : 1 h 28 min
00:00:00.000 : Chapter 1
00:00:19.000 : Chapter 2
00:00:53.000 : Chapter 3
00:01:17.000 : Chapter 4
00:01:46.000 : Chapter 5
00:01:49.040 : Chapter 6
00:02:03.040 : Chapter 7
00:02:07.680 : Chapter 8
00:02:14.840 : Chapter 9
00:02:32.840 : Chapter 10
00:03:06.840 : Chapter 11
00:03:51.840 : Chapter 12
00:04:20.840 : Chapter 13
00:04:24.360 : Chapter 14
00:04:31.360 : Chapter 15
00:04:37.360 : Chapter 16
00:04:40.000 : Chapter 17
00:04:45.760 : Chapter 18
00:04:49.880 : Chapter 19
List (Audio) : 0 / 1
Menu #3
General
Complete name : C:\Users\Marco\Documents\Rutracker_2\La Quinta Estacion - Directo Madrid\VIDEO_TS\VTS_01_0.VOB
Format : MPEG-PS
File size : 107 MiB
Duration : 45 s 24 ms
Overall bit rate mode : Variable
Overall bit rate : 19.9 Mb/s
Video
ID : 224 (0xE0)
Format : MPEG Video
Format version : Version 2
Format profile : [email protected]
Format settings : CustomMatrix / BVOP
Format settings, BVOP : Yes
Format settings, Matrix : Custom
Format settings, GOP : M=3, N=12
Format settings, picture structure : Frame
Duration : 45 s 0 ms
Bit rate mode : Variable
Bit rate : 19.3 Mb/s
Maximum bit rate : 6 900 kb/s
Width : 720 pixels
Height : 576 pixels
Display aspect ratio : 4:3
Frame rate : 25.000 FPS
Standard : PAL
Color space : YUV
Chroma subsampling : 4:2:0
Bit depth : 8 bits
Scan type : Interlaced
Scan order : Top Field First
Compression mode : Lossy
Bits/(Pixel*Frame) : 1.860
Time code of first frame : 00:00:00:00
Time code source : Group of pictures header
GOP, Open/Closed : Closed
Stream size : 103 MiB (97%)
Audio
ID : 189 (0xBD)-128 (0x80)
Format : AC-3
Format/Info : Audio Coding 3
Commercial name : Dolby Digital
Muxing mode : DVD-Video
Duration : 45 s 24 ms
Bit rate mode : Constant
Bit rate : 192 kb/s
Channel(s) : 2 channels
Channel layout : L R
Sampling rate : 48.0 kHz
Frame rate : 31.250 FPS (1536 SPF)
Bit depth : 16 bits
Compression mode : Lossy
Stream size : 1.03 MiB (1%)
Service kind : Complete Main
Text
ID : 189 (0xBD)-32 (0x20)
Format : RLE
Format/Info : Run-length encoding
Muxing mode : DVD-Video
Delay relative to video : 2 s 400 ms
Menu
General
Complete name : C:\Users\Marco\Documents\Rutracker_2\La Quinta Estacion - Directo Madrid\VIDEO_TS\VTS_01_1.VOB
Format : MPEG-PS
File size : 1 024 MiB
Duration : 25 min 0 s
Overall bit rate mode : Variable
Overall bit rate : 5 723 kb/s
Video
ID : 224 (0xE0)
Format : MPEG Video
Format version : Version 2
Format profile : [email protected]
Format settings : CustomMatrix / BVOP
Format settings, BVOP : Yes
Format settings, Matrix : Custom
Format settings, GOP : M=3, N=12
Format settings, picture structure : Frame
Duration : 25 min 0 s
Bit rate mode : Variable
Bit rate : 5 097 kb/s
Maximum bit rate : 6 800 kb/s
Width : 720 pixels
Height : 576 pixels
Display aspect ratio : 4:3
Frame rate : 25.000 FPS
Standard : PAL
Color space : YUV
Chroma subsampling : 4:2:0
Bit depth : 8 bits
Scan type : Interlaced
Scan order : Bottom Field First
Compression mode : Lossy
Bits/(Pixel*Frame) : 0.492
Time code of first frame : 01:00:00:00
Time code source : Group of pictures header
GOP, Open/Closed : Closed
Stream size : 912 MiB (89%)
Color primaries : BT.601 PAL
Transfer characteristics : BT.470 System B/G
Matrix coefficients : BT.601
Audio #1
ID : 189 (0xBD)-128 (0x80)
Format : AC-3
Format/Info : Audio Coding 3
Commercial name : Dolby Digital
Muxing mode : DVD-Video
Duration : 25 min 0 s
Bit rate mode : Constant
Bit rate : 192 kb/s
Channel(s) : 2 channels
Channel layout : L R
Sampling rate : 48.0 kHz
Frame rate : 31.250 FPS (1536 SPF)
Bit depth : 16 bits
Compression mode : Lossy
Stream size : 34.3 MiB (3%)
Service kind : Complete Main
Audio #2
ID : 189 (0xBD)-129 (0x81)
Format : AC-3
Format/Info : Audio Coding 3
Commercial name : Dolby Digital
Muxing mode : DVD-Video
Duration : 25 min 0 s
Bit rate mode : Constant
Bit rate : 320 kb/s
Channel(s) : 5 channels
Channel layout : L R LFE Ls Rs
Sampling rate : 48.0 kHz
Frame rate : 31.250 FPS (1536 SPF)
Bit depth : 16 bits
Compression mode : Lossy
Stream size : 57.2 MiB (6%)
Service kind : Complete Main
Menu
General
Complete name : C:\Users\Marco\Documents\Rutracker_2\La Quinta Estacion - Directo Madrid\VIDEO_TS\VTS_01_2.VOB
Format : MPEG-PS
File size : 1 024 MiB
Duration : 24 min 52 s
Overall bit rate mode : Variable
Overall bit rate : 5 754 kb/s
Video
ID : 224 (0xE0)
Format : MPEG Video
Format version : Version 2
Format profile : [email protected]
Format settings : CustomMatrix / BVOP
Format settings, BVOP : Yes
Format settings, Matrix : Custom
Format settings, GOP : M=3, N=12
Format settings, picture structure : Frame
Duration : 24 min 52 s
Bit rate mode : Variable
Bit rate : 5 128 kb/s
Maximum bit rate : 6 800 kb/s
Width : 720 pixels
Height : 576 pixels
Display aspect ratio : 4:3
Frame rate : 25.000 FPS
Standard : PAL
Color space : YUV
Chroma subsampling : 4:2:0
Bit depth : 8 bits
Scan type : Interlaced
Scan order : Bottom Field First
Compression mode : Lossy
Bits/(Pixel*Frame) : 0.495
Time code of first frame : 01:25:00:24
Time code source : Group of pictures header
GOP, Open/Closed : Closed
Stream size : 912 MiB (89%)
Color primaries : BT.601 PAL
Transfer characteristics : BT.470 System B/G
Matrix coefficients : BT.601
Audio #1
ID : 189 (0xBD)-128 (0x80)
Format : AC-3
Format/Info : Audio Coding 3
Commercial name : Dolby Digital
Muxing mode : DVD-Video
Duration : 24 min 52 s
Bit rate mode : Constant
Bit rate : 192 kb/s
Channel(s) : 2 channels
Channel layout : L R
Sampling rate : 48.0 kHz
Frame rate : 31.250 FPS (1536 SPF)
Bit depth : 16 bits
Compression mode : Lossy
Delay relative to video : -608 ms
Stream size : 34.2 MiB (3%)
Service kind : Complete Main
Audio #2
ID : 189 (0xBD)-129 (0x81)
Format : AC-3
Format/Info : Audio Coding 3
Commercial name : Dolby Digital
Muxing mode : DVD-Video
Duration : 24 min 52 s
Bit rate mode : Constant
Bit rate : 320 kb/s
Channel(s) : 5 channels
Channel layout : L R LFE Ls Rs
Sampling rate : 48.0 kHz
Frame rate : 31.250 FPS (1536 SPF)
Bit depth : 16 bits
Compression mode : Lossy
Delay relative to video : -640 ms
Stream size : 56.9 MiB (6%)
Service kind : Complete Main
Menu
General
Complete name : C:\Users\Marco\Documents\Rutracker_2\La Quinta Estacion - Directo Madrid\VIDEO_TS\VTS_01_3.VOB
Format : MPEG-PS
File size : 1 024 MiB
Duration : 25 min 20 s
Overall bit rate mode : Variable
Overall bit rate : 5 647 kb/s
Video
ID : 224 (0xE0)
Format : MPEG Video
Format version : Version 2
Format profile : [email protected]
Format settings : CustomMatrix / BVOP
Format settings, BVOP : Yes
Format settings, Matrix : Custom
Format settings, GOP : M=3, N=12
Format settings, picture structure : Frame
Duration : 25 min 20 s
Bit rate mode : Variable
Bit rate : 5 023 kb/s
Maximum bit rate : 6 800 kb/s
Width : 720 pixels
Height : 576 pixels
Display aspect ratio : 4:3
Frame rate : 25.000 FPS
Standard : PAL
Color space : YUV
Chroma subsampling : 4:2:0
Bit depth : 8 bits
Scan type : Interlaced
Scan order : Bottom Field First
Compression mode : Lossy
Bits/(Pixel*Frame) : 0.484
Time code of first frame : 01:49:53:07
Time code source : Group of pictures header
GOP, Open/Closed : Closed
Stream size : 911 MiB (89%)
Color primaries : BT.601 PAL
Transfer characteristics : BT.470 System B/G
Matrix coefficients : BT.601
Audio #1
ID : 189 (0xBD)-128 (0x80)
Format : AC-3
Format/Info : Audio Coding 3
Commercial name : Dolby Digital
Muxing mode : DVD-Video
Duration : 25 min 20 s
Bit rate mode : Constant
Bit rate : 192 kb/s
Channel(s) : 2 channels
Channel layout : L R
Sampling rate : 48.0 kHz
Frame rate : 31.250 FPS (1536 SPF)
Bit depth : 16 bits
Compression mode : Lossy
Delay relative to video : -352 ms
Stream size : 34.8 MiB (3%)
Service kind : Complete Main
Audio #2
ID : 189 (0xBD)-129 (0x81)
Format : AC-3
Format/Info : Audio Coding 3
Commercial name : Dolby Digital
Muxing mode : DVD-Video
Duration : 25 min 20 s
Bit rate mode : Constant
Bit rate : 320 kb/s
Channel(s) : 5 channels
Channel layout : L R LFE Ls Rs
Sampling rate : 48.0 kHz
Frame rate : 31.250 FPS (1536 SPF)
Bit depth : 16 bits
Compression mode : Lossy
Delay relative to video : -416 ms
Stream size : 58.0 MiB (6%)
Service kind : Complete Main
Menu
General
Complete name : C:\Users\Marco\Documents\Rutracker_2\La Quinta Estacion - Directo Madrid\VIDEO_TS\VTS_01_4.VOB
Format : MPEG-PS
File size : 556 MiB
Duration : 13 min 45 s
Overall bit rate mode : Variable
Overall bit rate : 5 648 kb/s
Video
ID : 224 (0xE0)
Format : MPEG Video
Format version : Version 2
Format profile : [email protected]
Format settings : CustomMatrix / BVOP
Format settings, BVOP : Yes
Format settings, Matrix : Custom
Format settings, GOP : M=3, N=12
Format settings, picture structure : Frame
Duration : 13 min 44 s
Bit rate mode : Variable
Bit rate : 5 024 kb/s
Maximum bit rate : 6 800 kb/s
Width : 720 pixels
Height : 576 pixels
Display aspect ratio : 4:3
Frame rate : 25.000 FPS
Standard : PAL
Color space : YUV
Chroma subsampling : 4:2:0
Bit depth : 8 bits
Scan type : Interlaced
Scan order : Bottom Field First
Compression mode : Lossy
Bits/(Pixel*Frame) : 0.485
Time code of first frame : 02:15:14:10
Time code source : Group of pictures header
GOP, Open/Closed : Closed
Stream size : 494 MiB (89%)
Color primaries : BT.601 PAL
Transfer characteristics : BT.470 System B/G
Matrix coefficients : BT.601
Audio #1
ID : 189 (0xBD)-128 (0x80)
Format : AC-3
Format/Info : Audio Coding 3
Commercial name : Dolby Digital
Muxing mode : DVD-Video
Duration : 13 min 45 s
Bit rate mode : Constant
Bit rate : 192 kb/s
Channel(s) : 2 channels
Channel layout : L R
Sampling rate : 48.0 kHz
Frame rate : 31.250 FPS (1536 SPF)
Bit depth : 16 bits
Compression mode : Lossy
Delay relative to video : -576 ms
Stream size : 18.9 MiB (3%)
Service kind : Complete Main
Audio #2
ID : 189 (0xBD)-129 (0x81)
Format : AC-3
Format/Info : Audio Coding 3
Commercial name : Dolby Digital
Muxing mode : DVD-Video
Duration : 13 min 45 s
Bit rate mode : Constant
Bit rate : 320 kb/s
Channel(s) : 5 channels
Channel layout : L R LFE Ls Rs
Sampling rate : 48.0 kHz
Frame rate : 31.250 FPS (1536 SPF)
Bit depth : 16 bits
Compression mode : Lossy
Delay relative to video : -576 ms
Stream size : 31.5 MiB (6%)
Service kind : Complete Main
Menu
General
Complete name : C:\Users\Marco\Documents\Rutracker_2\La Quinta Estacion - Directo Madrid\VIDEO_TS\VTS_02_0.BUP
Format : DVD Video
Format profile : Program
File size : 22.0 KiB
Duration : 8 min 20 s
Overall bit rate mode : Variable
Overall bit rate : 360 b/s
FileExtension_Invalid : ifo
Video
ID : 224 (0xE0)
Format : MPEG Video
Format version : Version 2
Duration : 8 min 20 s
Bit rate mode : Variable
Width : 720 pixels
Height : 576 pixels
Display aspect ratio : 4:3
Frame rate : 25.000 FPS
Standard : PAL
Compression mode : Lossy
Audio #1
ID : 0 (0x0)
Format : PCM
Duration : 8 min 20 s
Channel(s) : 2 channels
Sampling rate : 48.0 kHz
Audio #2
ID : 1 (0x1)
Format : PCM
Duration : 8 min 20 s
Channel(s) : 2 channels
Sampling rate : 48.0 kHz
Menu
Duration : 8 min 20 s
00:00:00.000 : Chapter 1
List (Audio) : 0 / 1
General
Complete name : C:\Users\Marco\Documents\Rutracker_2\La Quinta Estacion - Directo Madrid\VIDEO_TS\VTS_02_0.IFO
Format : DVD Video
Format profile : Program
File size : 22.0 KiB
Duration : 8 min 20 s
Overall bit rate mode : Variable
Overall bit rate : 360 b/s
Video
ID : 224 (0xE0)
Format : MPEG Video
Format version : Version 2
Duration : 8 min 20 s
Bit rate mode : Variable
Width : 720 pixels
Height : 576 pixels
Display aspect ratio : 4:3
Frame rate : 25.000 FPS
Standard : PAL
Compression mode : Lossy
Audio #1
ID : 0 (0x0)
Format : PCM
Duration : 8 min 20 s
Channel(s) : 2 channels
Sampling rate : 48.0 kHz
Audio #2
ID : 1 (0x1)
Format : PCM
Duration : 8 min 20 s
Channel(s) : 2 channels
Sampling rate : 48.0 kHz
Menu
Duration : 8 min 20 s
00:00:00.000 : Chapter 1
List (Audio) : 0 / 1
General
Complete name : C:\Users\Marco\Documents\Rutracker_2\La Quinta Estacion - Directo Madrid\VIDEO_TS\VTS_02_0.VOB
Format : MPEG-PS
File size : 154 KiB
Duration : 600 ms
Overall bit rate : 2 103 kb/s
Video
ID : 224 (0xE0)
Format : MPEG Video
Format version : Version 2
Format profile : [email protected]
Format settings : CustomMatrix / BVOP
Format settings, BVOP : Yes
Format settings, Matrix : Custom
Format settings, picture structure : Frame
Duration : 600 ms
Bit rate mode : Constant
Maximum bit rate : 2 000 kb/s
Width : 720 pixels
Height : 576 pixels
Display aspect ratio : 4:3
Frame rate : 25.000 FPS
Standard : PAL
Color space : YUV
Chroma subsampling : 4:2:0
Bit depth : 8 bits
Scan type : Interlaced
Scan order : Top Field First
Compression mode : Lossy
Time code of first frame : 00:00:00:00
Time code source : Group of pictures header
Text
ID : 189 (0xBD)-32 (0x20)
Format : RLE
Format/Info : Run-length encoding
Muxing mode : DVD-Video
Menu
General
Complete name : C:\Users\Marco\Documents\Rutracker_2\La Quinta Estacion - Directo Madrid\VIDEO_TS\VTS_02_1.VOB
Format : MPEG-PS
File size : 491 MiB
Duration : 8 min 20 s
Overall bit rate mode : Variable
Overall bit rate : 8 227 kb/s
Video
ID : 224 (0xE0)
Format : MPEG Video
Format version : Version 2
Format profile : [email protected]
Format settings : CustomMatrix / BVOP
Format settings, BVOP : Yes
Format settings, Matrix : Custom
Format settings, GOP : M=3, N=12
Format settings, picture structure : Frame
Duration : 8 min 20 s
Bit rate mode : Variable
Bit rate : 4 991 kb/s
Maximum bit rate : 6 200 kb/s
Width : 720 pixels
Height : 576 pixels
Display aspect ratio : 4:3
Frame rate : 25.000 FPS
Standard : PAL
Color space : YUV
Chroma subsampling : 4:2:0
Bit depth : 8 bits
Scan type : Interlaced
Scan order : Bottom Field First
Compression mode : Lossy
Bits/(Pixel*Frame) : 0.481
Time code of first frame : 00:00:00:00
Time code source : Group of pictures header
GOP, Open/Closed : Closed
Stream size : 298 MiB (61%)
Audio #1
ID : 189 (0xBD)-160 (0xA0)
Format : PCM
Format settings : Big / Signed
Muxing mode : DVD-Video
Duration : 8 min 20 s
Bit rate mode : Constant
Bit rate : 1 536 kb/s
Channel(s) : 2 channels
Sampling rate : 48.0 kHz
Bit depth : 16 bits
Stream size : 91.7 MiB (19%)
Audio #2
ID : 189 (0xBD)-161 (0xA1)
Format : PCM
Format settings : Big / Signed
Muxing mode : DVD-Video
Duration : 8 min 20 s
Bit rate mode : Constant
Bit rate : 1 536 kb/s
Channel(s) : 2 channels
Sampling rate : 48.0 kHz
Bit depth : 16 bits
Stream size : 91.7 MiB (19%)
Menu
General
Complete name : C:\Users\Marco\Documents\Rutracker_2\La Quinta Estacion - Directo Madrid\VIDEO_TS\VTS_03_0.BUP
Format : DVD Video
Format profile : Program
File size : 18.0 KiB
Duration : 46 s 960 ms
Overall bit rate mode : Variable
Overall bit rate : 3 140 b/s
FileExtension_Invalid : ifo
Video
ID : 224 (0xE0)
Format : MPEG Video
Format version : Version 2
Duration : 46 s 960 ms
Bit rate mode : Variable
Width : 720 pixels
Height : 576 pixels
Display aspect ratio : 4:3
Frame rate : 25.000 FPS
Standard : PAL
Compression mode : Lossy
Audio
ID : 0 (0x0)
Format : PCM
Duration : 46 s 960 ms
Channel(s) : 2 channels
Sampling rate : 48.0 kHz
Menu #1
Duration : 46 s 960 ms
00:00:00.000 : Chapter 1
List (Audio) : 0
Menu #2
Duration : 46 s 960 ms
00:00:00.000 : Chapter 1
List (Audio) : 0
Menu #3
General
Complete name : C:\Users\Marco\Documents\Rutracker_2\La Quinta Estacion - Directo Madrid\VIDEO_TS\VTS_03_0.IFO
Format : DVD Video
Format profile : Program
File size : 18.0 KiB
Duration : 46 s 960 ms
Overall bit rate mode : Variable
Overall bit rate : 3 140 b/s
Video
ID : 224 (0xE0)
Format : MPEG Video
Format version : Version 2
Duration : 46 s 960 ms
Bit rate mode : Variable
Width : 720 pixels
Height : 576 pixels
Display aspect ratio : 4:3
Frame rate : 25.000 FPS
Standard : PAL
Compression mode : Lossy
Audio
ID : 0 (0x0)
Format : PCM
Duration : 46 s 960 ms
Channel(s) : 2 channels
Sampling rate : 48.0 kHz
Menu #1
Duration : 46 s 960 ms
00:00:00.000 : Chapter 1
List (Audio) : 0
Menu #2
Duration : 46 s 960 ms
00:00:00.000 : Chapter 1
List (Audio) : 0
Menu #3
General
Complete name : C:\Users\Marco\Documents\Rutracker_2\La Quinta Estacion - Directo Madrid\VIDEO_TS\VTS_03_0.VOB
Format : MPEG-PS
File size : 154 KiB
Duration : 600 ms
Overall bit rate : 2 103 kb/s
Video
ID : 224 (0xE0)
Format : MPEG Video
Format version : Version 2
Format profile : [email protected]
Format settings : CustomMatrix / BVOP
Format settings, BVOP : Yes
Format settings, Matrix : Custom
Format settings, picture structure : Frame
Duration : 600 ms
Bit rate mode : Constant
Maximum bit rate : 2 000 kb/s
Width : 720 pixels
Height : 576 pixels
Display aspect ratio : 4:3
Frame rate : 25.000 FPS
Standard : PAL
Color space : YUV
Chroma subsampling : 4:2:0
Bit depth : 8 bits
Scan type : Interlaced
Scan order : Top Field First
Compression mode : Lossy
Time code of first frame : 00:00:00:00
Time code source : Group of pictures header
Text
ID : 189 (0xBD)-32 (0x20)
Format : RLE
Format/Info : Run-length encoding
Muxing mode : DVD-Video
Menu
General
Complete name : C:\Users\Marco\Documents\Rutracker_2\La Quinta Estacion - Directo Madrid\VIDEO_TS\VTS_03_1.VOB
Format : MPEG-PS
File size : 26.0 MiB
Duration : 46 s 960 ms
Overall bit rate mode : Variable
Overall bit rate : 4 643 kb/s
Video
ID : 224 (0xE0)
Format : MPEG Video
Format version : Version 2
Format profile : [email protected]
Format settings : CustomMatrix / BVOP
Format settings, BVOP : Yes
Format settings, Matrix : Custom
Format settings, GOP : M=3, N=12
Format settings, picture structure : Frame
Duration : 46 s 960 ms
Bit rate mode : Variable
Bit rate : 3 015 kb/s
Maximum bit rate : 6 200 kb/s
Width : 720 pixels
Height : 576 pixels
Display aspect ratio : 4:3
Frame rate : 25.000 FPS
Standard : PAL
Color space : YUV
Chroma subsampling : 4:2:0
Bit depth : 8 bits
Scan type : Interlaced
Scan order : Bottom Field First
Compression mode : Lossy
Bits/(Pixel*Frame) : 0.291
Time code of first frame : 00:00:00:00
Time code source : Group of pictures header
GOP, Open/Closed : Closed
Stream size : 16.9 MiB (65%)
Audio
ID : 189 (0xBD)-160 (0xA0)
Format : PCM
Format settings : Big / Signed
Muxing mode : DVD-Video
Duration : 46 s 958 ms
Bit rate mode : Constant
Bit rate : 1 536 kb/s
Channel(s) : 2 channels
Sampling rate : 48.0 kHz
Bit depth : 16 bits
Stream size : 8.60 MiB (33%)

[4.15 GB] Скачать / Download