(New Wave, Synthpop) Partenaire Particulier - Collection Legende - 1999, FLAC (image+.cue), lossless - Скачать

Жанр: New Wave, Synthpop
Год издания: 1999
Страна: France
Аудиокодек: FLAC (*.flac)
Тип рипа: image+.cue
Битрейт аудио: lossless
Продолжительность: 49:52.57
Источник (релизер): рип c CD-R
Наличие сканов в содержимом раздачи: да
Треклист:
01. Partenaire particulier [0:04:12.57]
02. Elle est partie [0:05:09.33]
03. Je n'oublierai jamais [0:03:27.28]
04. Prends garde а toi [0:03:18.06]
05. Tiphaine [0:04:54.45]
06. Le regard fier [0:04:37.00]
07. L'amour а trois [0:04:15.19]
08. Volodia [0:04:18.73]
09. Les regards [0:03:41.71]
10. Paris s'endort [0:03:58.32]
11. Non! [0:04:16.22]
12. Le rire de Sidonie [0:03:42.47]

торрент, бесплатно, скачать, альбом, альбом, дискография, музыка, cd, mp3, download, трек, lossless, torrent, композиции, pop, поп, soundtrack, pop-music, песни, поп-музыка, высокое качество

 Exact Audio Copy V0.99 prebeta 5 from 4. May 2009
Отчёт EAC об извлечении, выполненном 29. июля 2012, 15:35
Partenaire Particulier / Collection Legende
Дисковод: Optiarc DVD RW AD-7201A Adapter: 0 ID: 0
Режим чтения : Достоверность
Использование точного потока : Да
Отключение кэша аудио : Да
Использование указателей C2 : Нет
Коррекция смещения при чтении : 48
Способность читать области Lead-in и Lead-out : Нет
Заполнение пропущенных сэмплов тишиной : Да
Удаление блоков с тишиной в начале и конце : Нет
При вычислениях CRC использовались нулевые сэмплы : Да
Интерфейс : Установленный внешний ASPI-интерфейс
Выходной формат : Внутренние WAV-операции
Формат сэмплов : 44.100 Гц; 16 бит; стерео
TOC извлечённого CD
Трек | Старт | Длительность | Начальный сектор | Конечный сектор
---------------------------------------------------------------------
1 | 0:00.00 | 4:12.57 | 0 | 18956
2 | 4:12.57 | 5:09.33 | 18957 | 42164
3 | 9:22.15 | 3:27.28 | 42165 | 57717
4 | 12:49.43 | 3:18.06 | 57718 | 72573
5 | 16:07.49 | 4:54.45 | 72574 | 94668
6 | 21:02.19 | 4:37.00 | 94669 | 115443
7 | 25:39.19 | 4:15.19 | 115444 | 134587
8 | 29:54.38 | 4:18.73 | 134588 | 154010
9 | 34:13.36 | 3:41.71 | 154011 | 170656
10 | 37:55.32 | 3:58.32 | 170657 | 188538
11 | 41:53.64 | 4:16.22 | 188539 | 207760
12 | 46:10.11 | 3:42.47 | 207761 | 224457
Характеристики диапазона извлечения и сообщения об ошибках
Выбранный диапазон
Имя файла O:\MUZZIGG\UPLOADS\Partenaire Particulier - Collection Legende\Partenaire Particulier - Collection Legende.wav
Пиковый уровень 100.0 %
Качество диапазона 100.0 %
CRC теста B2895B2D
CRC копии B2895B2D
Копирование... OK
Ошибок не произошло
AccurateRip: сводка
Трек 1 нет в базе данных
Трек 2 нет в базе данных
Трек 3 нет в базе данных
Трек 4 нет в базе данных
Трек 5 нет в базе данных
Трек 6 нет в базе данных
Трек 7 нет в базе данных
Трек 8 нет в базе данных
Трек 9 нет в базе данных
Трек 10 нет в базе данных
Трек 11 нет в базе данных
Трек 12 нет в базе данных
Ни одного трека нет в базе AccurateRip
Конец отчёта
 REM GENRE Synthpop
REM DATE 1999
REM DISCID AF0BB00C
REM COMMENT "ExactAudioCopy v0.99pb5"
PERFORMER "Partenaire Particulier"
TITLE "Collection Legende"
FILE "Partenaire Particulier - Collection Legende.wav" WAVE
TRACK 01 AUDIO
TITLE "Partenaire particulier"
PERFORMER "Partenaire Particulier"
INDEX 01 00:00:00
TRACK 02 AUDIO
TITLE "Elle est partie"
PERFORMER "Partenaire Particulier"
INDEX 01 04:12:57
TRACK 03 AUDIO
TITLE "Je n'oublierai jamais"
PERFORMER "Partenaire Particulier"
INDEX 01 09:22:15
TRACK 04 AUDIO
TITLE "Prends garde а toi"
PERFORMER "Partenaire Particulier"
INDEX 01 12:49:43
TRACK 05 AUDIO
TITLE "Tiphaine"
PERFORMER "Partenaire Particulier"
INDEX 01 16:07:49
TRACK 06 AUDIO
TITLE "Le regard fier"
PERFORMER "Partenaire Particulier"
INDEX 01 21:02:19
TRACK 07 AUDIO
TITLE "L'amour а trois"
PERFORMER "Partenaire Particulier"
INDEX 01 25:39:19
TRACK 08 AUDIO
TITLE "Volodia"
PERFORMER "Partenaire Particulier"
INDEX 01 29:54:38
TRACK 09 AUDIO
TITLE "Les regards"
PERFORMER "Partenaire Particulier"
INDEX 01 34:13:36
TRACK 10 AUDIO
TITLE "Paris s'endort"
PERFORMER "Partenaire Particulier"
INDEX 01 37:55:32
TRACK 11 AUDIO
TITLE "Non!"
PERFORMER "Partenaire Particulier"
INDEX 01 41:53:64
TRACK 12 AUDIO
TITLE "Le rire de Sidonie"
PERFORMER "Partenaire Particulier"
INDEX 01 46:10:11
Partenaire Particulier - успешная французская группа из г.Бордо, работавшая в жанре pop, new wave в середине 1980-х годов.
Три сингла группы входили в SNEP chart (Top 50), включая композицию "Partenaire Particulier" (достигшую №3 в национальном чарте).
Состав:
Eric Fettweis (с 1983)
Pierre Béraud-Sudreau (1984-2009)
Dominique Delaby (1983-1986)
Laurent Le Trillard (1986)
Дискография
Альбомы:
1986 - Jeux interdits
1988 - Le Chant des vautours
1993 - The very best of
1998 - Collection légende
2008 - Partenaire Particulier - le son des années 80
2011 - Geek
Синглы:
1985 - Partenaire Particulier / Partenaire Particulier (instrumental remix)
1986 - Je n'oublierai jamais / Une Autre Nuit
1987 - Elle est partie / Elle n'aimait pas les garçons
1987 - Tiphaine / Le Regard fier
1988 - L'Armée / Le Rire de Sidonie
1989 - L'Amour à trois / Non!

[333.9 MB] Скачать / Download