Pablo Alborán (Alboran): En acustico - Скачать

Разбивка на главы по трекам: есть
Качество: DVD5
Формат: DVD video
Видео кодек: MPEG2
Аудио кодек: AC3
Видео: MPEG2, 720x576 (16:9), 7500 Kbps, 25.00fps
Аудио: Dolby AC3, 48000Hz, 2ch, 384kbps
Аудио2: Dolby AC3, 48000Hz, 6ch, 448kbps

Понравилось? Посмотрите другие мои раздачи
Кстати, если Вы нажмёте на "CПАСИБО" и оставите отзыв, Я НЕ ОБИЖУСЬ!

скачать, cd, песни, дискография, pop-music, поп-музыка, альбом, композиции, торрент, поп, высокое качество, альбом, pop, mp3, музыка, download, lossless, soundtrack, трек, torrent, бесплатно


Концерт:
01. Desencuentro
02. Solamente tú
03. Miedo
04. Caramelo
05. Vuelve conmigo
06. Me colé por la puerta de atrás
07. Volver a empezar
08. Loco de atar
09. Ladrona de mi piel
10. No te olvidaré
11. Perdóname
12. Te he echado de menos
13. Cuando te alejas
14. Solamente tú (con Diana Navarro)
15. Perdóname (con Carminho) (en portugués)
Дополнительные материалы:
01. Cómo se hizo: "Pablo Alborán: En acústico".
02. Habitación 155.
 General
Complete name : M:\MUSIC\VIDS\Pablo Alboran - En acustico (DVD5)\VIDEO_TS\VTS_01_1.VOB
Format : MPEG-PS
File size : 1 024 MiB
Duration : 20mn 21s
Overall bit rate : 7 030 Kbps
Video
ID : 224 (0xE0)
Format : MPEG Video
Format version : Version 2
Format profile : [email protected]
Format settings, BVOP : Yes
Format settings, Matrix : Custom
Format settings, GOP : M=3, N=12
Duration : 20mn 21s
Bit rate mode : Variable
Bit rate : 6 058 Kbps
Maximum bit rate : 7 500 Kbps
Width : 720 pixels
Height : 576 pixels
Display aspect ratio : 16:9
Frame rate : 25.000 fps
Standard : PAL
Color space : YUV
Chroma subsampling : 4:2:0
Bit depth : 8 bits
Scan type : Progressive
Compression mode : Lossy
Bits/(Pixel*Frame) : 0.584
Stream size : 882 MiB (86%)
Audio #1
ID : 189 (0xBD)-128 (0x80)
Format : AC-3
Format/Info : Audio Coding 3
Mode extension : CM (complete main)
Muxing mode : DVD-Video
Duration : 20mn 21s
Bit rate mode : Constant
Bit rate : 384 Kbps
Channel(s) : 2 channels
Channel positions : Front: L R
Sampling rate : 48.0 KHz
Bit depth : 16 bits
Compression mode : Lossy
Stream size : 55.9 MiB (5%)
Audio #2
ID : 189 (0xBD)-129 (0x81)
Format : AC-3
Format/Info : Audio Coding 3
Mode extension : CM (complete main)
Muxing mode : DVD-Video
Duration : 20mn 21s
Bit rate mode : Constant
Bit rate : 448 Kbps
Channel(s) : 6 channels
Channel positions : Front: L C R, Side: L R, LFE
Sampling rate : 48.0 KHz
Bit depth : 16 bits
Compression mode : Lossy
Stream size : 65.2 MiB (6%)
Menu
Концерт:

Дополнительные материалы:

[4.36 GB] Скачать / Download