(Pop) Martika - Toy Soldiers (Maxi CD Single) (UK) - 1989, FLAC (tracks+.cue), lossless - Скачать

Жанр: Pop
Носитель: CDM
Страна-производитель диска: UK
Год издания: 1989
Издатель (лейбл): CBS ‎
Номер по каталогу: 655049 2
Аудиокодек: FLAC (*.flac)
Тип рипа: tracks+.cue
Битрейт аудио: lossless
Продолжительность: 00:12:54
Источник (релизер): own rip
Наличие сканов в содержимом раздачи: да
Треклист:
1. Martika -Toy Soldiers(Edit) (4:21)
2. Martika -It's Not What You're Doing(4:12)
3. Martika -Exchange Of Hearts(4:21)

soundtrack, lossless, музыка, torrent, cd, download, дискография, pop-music, поп-музыка, трек, скачать, pop, альбом, mp3, альбом, бесплатно, торрент, песни, поп, высокое качество, композиции

 Exact Audio Copy V1.0 beta 3 from 29. August 2011
EAC extraction logfile from 16. February 2014, 10:44
Martika / Toy Soldiers (UK)
Used drive : TSSTcorpCDDVDW SN-208BB Adapter: 0 ID: 1
Read mode : Secure
Utilize accurate stream : Yes
Defeat audio cache : Yes
Make use of C2 pointers : No
Read offset correction : 6
Overread into Lead-In and Lead-Out : No
Fill up missing offset samples with silence : Yes
Delete leading and trailing silent blocks : No
Null samples used in CRC calculations : Yes
Used interface : Native Win32 interface for Win NT & 2000
Gap handling : Appended to previous track
Used output format : User Defined Encoder
Selected bitrate : 1024 kBit/s
Quality : High
Add ID3 tag : No
Command line compressor : C:\Program Files (x86)\Exact Audio Copy\Flac\flac.exe
Additional command line options : -8 -V -T "artist=%artist%" -T "title=%title%" -T "album=%albumtitle%" -T "date=%year%" -T "tracknumber=%tracknr%" -T "genre=%genre%" %source%
TOC of the extracted CD
Track | Start | Length | Start sector | End sector
---------------------------------------------------------
1 | 0:00.00 | 4:21.10 | 0 | 19584
2 | 4:21.10 | 4:12.37 | 19585 | 38521
3 | 8:33.47 | 4:21.05 | 38522 | 58101
Track 1
Filename E:\Torrent\Martika - Toy Soldiers (Maxi CD Single) (UK)\01 Toy Soldiers.wav
Pre-gap length 0:00:02.00
Peak level 92.6 %
Extraction speed 1.4 X
Track quality 99.9 %
Test CRC ABAD4820
Copy CRC FE6736FB
Accurately ripped (confidence 3) [C7E6BD9E] (AR v2)
Copy OK
Track 2
Filename E:\Torrent\Martika - Toy Soldiers (Maxi CD Single) (UK)\02 It's Not What You're Doing.wav
Pre-gap length 0:00:01.73
Peak level 100.0 %
Extraction speed 1.9 X
Track quality 100.0 %
Test CRC 01A4CDCC
Copy CRC 01A4CDCC
Accurately ripped (confidence 2) [41B1111B] (AR v2)
Copy OK
Track 3
Filename E:\Torrent\Martika - Toy Soldiers (Maxi CD Single) (UK)\03 Exchange Of Hearts.wav
Pre-gap length 0:00:01.45
Peak level 95.4 %
Extraction speed 1.9 X
Track quality 99.9 %
Test CRC 2A67EA24
Copy CRC 2A67EA24
Accurately ripped (confidence 2) [686AAEF9] (AR v2)
Copy OK
All tracks accurately ripped
No errors occurred
End of status report
==== Log checksum DC8AA8E071D6F4DE10257C8A60DB72CDD2DD85E52A82AD35AD5600AA92FC2F96 ====
 REM GENRE Pop
REM DATE 1989
REM DISCID 18030603
REM COMMENT "ExactAudioCopy v1.0b3"
CATALOG 0000000000000
PERFORMER "Martika"
TITLE "Toy Soldiers (UK)"
FILE "01 Toy Soldiers.wav" WAVE
TRACK 01 AUDIO
TITLE "Toy Soldiers"
PERFORMER "Martika"
INDEX 01 00:00:00
TRACK 02 AUDIO
TITLE "It's Not What You're Doing"
PERFORMER "Martika"
INDEX 00 04:19:12
FILE "02 It's Not What You're Doing.wav" WAVE
INDEX 01 00:00:00
TRACK 03 AUDIO
TITLE "Exchange Of Hearts"
PERFORMER "Martika"
INDEX 00 04:10:67
FILE "03 Exchange Of Hearts.wav" WAVE
INDEX 01 00:00:00

[93.2 MB] Скачать / Download