(Pop, Dance-Pop, Disco, Italo Dance, Italo Disco) VA - Italo Disco - The Lost Legends, Vol. 6-10 (5 CD) - 2017, FLAC (image+.cue), lossless - Скачать

Жанр: Pop, Dance-Pop, Disco, Italo Dance, Italo Disco
Носитель: CD
Страна-производитель диска (релиза): Netherlands
Год издания: 2018
Издатель (лейбл): Disco Magic Melody
Аудиокодек: FLAC (*.flac)
Тип рипа: tracks .cue
Битрейт аудио: lossless
Продолжительность: 05:47:57
Источник (релизер): локальная сеть (Krevetka1972)
Наличие сканов в содержимом раздачи: нет
Треклист:

pop, трек, музыка, скачать, торрент, поп-музыка, композиции, download, песни, альбом, torrent, mp3, высокое качество, бесплатно, альбом, pop-music, поп, cd, soundtrack, дискография, lossless

01 Demode Boulevard - The Height Of The Fighting (05:15)
02 Black Tie - Double Time (04:58)
03 Three Of You - Grace (06:03)
04 Bobby J. - Number One (05:06)
05 Maini - Love Is Life (06:05)
06 Ubaldo Missoni - Let Me Be Your Man (04:20)
07 Camomilla - Tonight (05:15)
08 Bob Robert - Storm In A Teacup (06:24)
09 Xario - Are You Leaving (05:59)
10 New Sin - Black Fantasy (06:41)
11 M & G - Boogie Tonight (06:06)
12 Drajan - Hippodrome's Dream (05:40)
13 Vincent - Someone's Sayin' 'No' (06:05)
14 Carrano - Mutation (04:08)
Лог создания рипа
 Exact Audio Copy V1.3 from 2. September 2016
EAC extraction logfile from 16. December 2017, 16:28
Various / Italo Disco - The Lost Legends Vol. 6
Used drive : PLEXTOR CD-ROM PX-54TA Adapter: 1 ID: 1
Read mode : Secure
Utilize accurate stream : Yes
Defeat audio cache : Yes
Make use of C2 pointers : No
Read offset correction : 12
Overread into Lead-In and Lead-Out : No
Fill up missing offset samples with silence : Yes
Delete leading and trailing silent blocks : No
Null samples used in CRC calculations : Yes
Used interface : Native Win32 interface for Win NT & 2000
Gap handling : Appended to previous track
Used output format : User Defined Encoder
Selected bitrate : 1024 kBit/s
Quality : High
Add ID3 tag : No
Command line compressor : C:\Program Files (x86)\Exact Audio Copy\Flac\flac-1.3.2-win\flac-1.3.2-win\win64\flac.exe
Additional command line options : -V -6 -T "COMMENT=ripped by Krevetka1972 special for СПАМ -T "ARTIST=%artist%" -T "TITLE=%title%" -T "ALBUM=%albumtitle%" -T "DATE=%year%" -T "TRACKNUMBER=%tracknr%" -T "GENRE=%genre%" -T "ALBUMARTIST=%albuminterpret%" %source% -o Юst%
TOC of the extracted CD
Track | Start | Length | Start sector | End sector
---------------------------------------------------------
1 | 0:00.00 | 5:14.52 | 0 | 23601
2 | 5:14.52 | 4:57.41 | 23602 | 45917
3 | 10:12.18 | 6:03.11 | 45918 | 73153
4 | 16:15.29 | 5:05.31 | 73154 | 96059
5 | 21:20.60 | 6:04.69 | 96060 | 123428
6 | 27:25.54 | 4:19.71 | 123429 | 142924
7 | 31:45.50 | 5:14.72 | 142925 | 166546
8 | 37:00.47 | 6:23.10 | 166547 | 195281
9 | 43:23.57 | 5:58.27 | 195282 | 222158
10 | 49:22.09 | 6:40.74 | 222159 | 252232
11 | 56:03.08 | 6:05.73 | 252233 | 279680
12 | 62:09.06 | 5:40.04 | 279681 | 305184
13 | 67:49.10 | 6:04.57 | 305185 | 332541
14 | 73:53.67 | 4:07.24 | 332542 | 351090
Track 1
Filename G:\Italo Disco - The Lost Legends\Various - 2017 - Italo Disco - The Lost Legends Vol. 6 (Disco Magic Melody # DMM CD 06 I)\01. Demode Boulevard - The Height Of The Fighting.wav
Pre-gap length 0:00:02.00
Peak level 78.1 %
Extraction speed 3.8 X
Track quality 99.9 %
Test CRC 42419418
Copy CRC 42419418
Track not present in AccurateRip database
Copy OK
Track 2
Filename G:\Italo Disco - The Lost Legends\Various - 2017 - Italo Disco - The Lost Legends Vol. 6 (Disco Magic Melody # DMM CD 06 I)\02. Black Tie - Double Time.wav
Pre-gap length 0:00:02.00
Peak level 93.2 %
Extraction speed 4.6 X
Track quality 100.0 %
Test CRC E4FEFF59
Copy CRC E4FEFF59
Track not present in AccurateRip database
Copy OK
Track 3
Filename G:\Italo Disco - The Lost Legends\Various - 2017 - Italo Disco - The Lost Legends Vol. 6 (Disco Magic Melody # DMM CD 06 I)\03. Three Of You - Grace.wav
Pre-gap length 0:00:02.00
Peak level 77.9 %
Extraction speed 5.2 X
Track quality 100.0 %
Test CRC C4CB5DBD
Copy CRC C4CB5DBD
Track not present in AccurateRip database
Copy OK
Track 4
Filename G:\Italo Disco - The Lost Legends\Various - 2017 - Italo Disco - The Lost Legends Vol. 6 (Disco Magic Melody # DMM CD 06 I)\04. Bobby J. - Number One.wav
Pre-gap length 0:00:02.00
Peak level 79.8 %
Extraction speed 5.0 X
Track quality 99.9 %
Test CRC B7A65AC0
Copy CRC B7A65AC0
Track not present in AccurateRip database
Copy OK
Track 5
Filename G:\Italo Disco - The Lost Legends\Various - 2017 - Italo Disco - The Lost Legends Vol. 6 (Disco Magic Melody # DMM CD 06 I)\05. Maini - Love Is Life.wav
Pre-gap length 0:00:02.00
Peak level 99.2 %
Extraction speed 6.1 X
Track quality 100.0 %
Test CRC DB434B26
Copy CRC DB434B26
Track not present in AccurateRip database
Copy OK
Track 6
Filename G:\Italo Disco - The Lost Legends\Various - 2017 - Italo Disco - The Lost Legends Vol. 6 (Disco Magic Melody # DMM CD 06 I)\06. Ubaldo Missoni - Let Me Be Your Man.wav
Pre-gap length 0:00:02.00
Peak level 82.8 %
Extraction speed 5.4 X
Track quality 99.9 %
Test CRC 9DD23B69
Copy CRC 9DD23B69
Track not present in AccurateRip database
Copy OK
Track 7
Filename G:\Italo Disco - The Lost Legends\Various - 2017 - Italo Disco - The Lost Legends Vol. 6 (Disco Magic Melody # DMM CD 06 I)\07. Camomilla - Tonight.wav
Pre-gap length 0:00:02.00
Peak level 76.4 %
Extraction speed 6.6 X
Track quality 100.0 %
Test CRC B8D8C15F
Copy CRC B8D8C15F
Track not present in AccurateRip database
Copy OK
Track 8
Filename G:\Italo Disco - The Lost Legends\Various - 2017 - Italo Disco - The Lost Legends Vol. 6 (Disco Magic Melody # DMM CD 06 I)\08. Bob Robert - Storm In A Teacup.wav
Pre-gap length 0:00:02.00
Peak level 88.9 %
Extraction speed 6.5 X
Track quality 99.9 %
Test CRC B22F6F98
Copy CRC B22F6F98
Track not present in AccurateRip database
Copy OK
Track 9
Filename G:\Italo Disco - The Lost Legends\Various - 2017 - Italo Disco - The Lost Legends Vol. 6 (Disco Magic Melody # DMM CD 06 I)\09. Xario - Are You Leaving.wav
Pre-gap length 0:00:02.00
Peak level 90.2 %
Extraction speed 7.3 X
Track quality 100.0 %
Test CRC 17549241
Copy CRC 17549241
Track not present in AccurateRip database
Copy OK
Track 10
Filename G:\Italo Disco - The Lost Legends\Various - 2017 - Italo Disco - The Lost Legends Vol. 6 (Disco Magic Melody # DMM CD 06 I)\10. New Sin - Black Fantasy.wav
Pre-gap length 0:00:02.00
Peak level 78.9 %
Extraction speed 7.7 X
Track quality 100.0 %
Test CRC 3057711E
Copy CRC 3057711E
Track not present in AccurateRip database
Copy OK
Track 11
Filename G:\Italo Disco - The Lost Legends\Various - 2017 - Italo Disco - The Lost Legends Vol. 6 (Disco Magic Melody # DMM CD 06 I)\11. M & G - Boogie Tonight.wav
Pre-gap length 0:00:02.00
Peak level 96.4 %
Extraction speed 7.9 X
Track quality 100.0 %
Test CRC CDB673BD
Copy CRC CDB673BD
Track not present in AccurateRip database
Copy OK
Track 12
Filename G:\Italo Disco - The Lost Legends\Various - 2017 - Italo Disco - The Lost Legends Vol. 6 (Disco Magic Melody # DMM CD 06 I)\12. Drajan - Hippodrome's Dream.wav
Pre-gap length 0:00:02.00
Peak level 87.8 %
Extraction speed 8.2 X
Track quality 100.0 %
Test CRC E3CFCA00
Copy CRC E3CFCA00
Track not present in AccurateRip database
Copy OK
Track 13
Filename G:\Italo Disco - The Lost Legends\Various - 2017 - Italo Disco - The Lost Legends Vol. 6 (Disco Magic Melody # DMM CD 06 I)\13. Vincent - Someone's Sayin' ''No''.wav
Pre-gap length 0:00:02.00
Peak level 96.5 %
Extraction speed 8.5 X
Track quality 100.0 %
Test CRC 38D29A66
Copy CRC 38D29A66
Track not present in AccurateRip database
Copy OK
Track 14
Filename G:\Italo Disco - The Lost Legends\Various - 2017 - Italo Disco - The Lost Legends Vol. 6 (Disco Magic Melody # DMM CD 06 I)\14. Carrano - Mutation.wav
Pre-gap length 0:00:02.00
Peak level 91.3 %
Extraction speed 7.4 X
Track quality 99.9 %
Test CRC CDACED97
Copy CRC CDACED97
Track not present in AccurateRip database
Copy OK
None of the tracks are present in the AccurateRip database
No errors occurred
End of status report
---- AcoustID Plugin V1.2.0
Total fingerprints: 14
---- CUETools DB Plugin V2.1.6
[CTDB TOCID: ANDFbLJfBkXs2o6Gdum8pG_420o-] found
Submit result: ANDFbLJfBkXs2o6Gdum8pG_420o- has been confirmed
Track | CTDB Status
1 | (1/1) Accurately ripped
2 | (1/1) Accurately ripped
3 | (1/1) Accurately ripped
4 | (1/1) Accurately ripped
5 | (1/1) Accurately ripped
6 | (1/1) Accurately ripped
7 | (1/1) Accurately ripped
8 | (1/1) Accurately ripped
9 | (1/1) Accurately ripped
10 | (1/1) Accurately ripped
11 | (1/1) Accurately ripped
12 | (1/1) Accurately ripped
13 | (1/1) Accurately ripped
14 | (1/1) Accurately ripped
==== Log checksum 4A318CABE0FFD577ACCFDB22161FF7374F2B9CB2CD8E2D3A6F832847D340234E ====
Содержание индексной карты (.CUE)
 REM GENRE Italo-Disco
REM DATE 2017
REM DISCID C312490E
REM COMMENT "ExactAudioCopy v1.3"
PERFORMER "Various"
TITLE "Italo Disco - The Lost Legends Vol. 6"
REM COMPOSER ""
FILE "01. Demode Boulevard - The Height Of The Fighting.wav" WAVE
TRACK 01 AUDIO
TITLE "The Height Of The Fighting"
PERFORMER "Demode Boulevard"
REM COMPOSER ""
INDEX 01 00:00:00
TRACK 02 AUDIO
TITLE "Double Time"
PERFORMER "Black Tie"
REM COMPOSER ""
INDEX 00 05:12:52
FILE "02. Black Tie - Double Time.wav" WAVE
INDEX 01 00:00:00
TRACK 03 AUDIO
TITLE "Grace"
PERFORMER "Three Of You"
REM COMPOSER ""
INDEX 00 04:55:41
FILE "03. Three Of You - Grace.wav" WAVE
INDEX 01 00:00:00
TRACK 04 AUDIO
TITLE "Number One"
PERFORMER "Bobby J."
REM COMPOSER ""
INDEX 00 06:01:11
FILE "04. Bobby J. - Number One.wav" WAVE
INDEX 01 00:00:00
TRACK 05 AUDIO
TITLE "Love Is Life"
PERFORMER "Maini"
REM COMPOSER ""
INDEX 00 05:03:31
FILE "05. Maini - Love Is Life.wav" WAVE
INDEX 01 00:00:00
TRACK 06 AUDIO
TITLE "Let Me Be Your Man"
PERFORMER "Ubaldo Missoni"
REM COMPOSER ""
INDEX 00 06:02:69
FILE "06. Ubaldo Missoni - Let Me Be Your Man.wav" WAVE
INDEX 01 00:00:00
TRACK 07 AUDIO
TITLE "Tonight"
PERFORMER "Camomilla"
REM COMPOSER ""
INDEX 00 04:17:71
FILE "07. Camomilla - Tonight.wav" WAVE
INDEX 01 00:00:00
TRACK 08 AUDIO
TITLE "Storm In A Teacup"
PERFORMER "Bob Robert"
REM COMPOSER ""
INDEX 00 05:12:72
FILE "08. Bob Robert - Storm In A Teacup.wav" WAVE
INDEX 01 00:00:00
TRACK 09 AUDIO
TITLE "Are You Leaving"
PERFORMER "Xario"
REM COMPOSER ""
INDEX 00 06:21:10
FILE "09. Xario - Are You Leaving.wav" WAVE
INDEX 01 00:00:00
TRACK 10 AUDIO
TITLE "Black Fantasy"
PERFORMER "New Sin"
REM COMPOSER ""
INDEX 00 05:56:27
FILE "10. New Sin - Black Fantasy.wav" WAVE
INDEX 01 00:00:00
TRACK 11 AUDIO
TITLE "Boogie Tonight"
PERFORMER "M & G"
REM COMPOSER ""
INDEX 00 06:38:74
FILE "11. M & G - Boogie Tonight.wav" WAVE
INDEX 01 00:00:00
TRACK 12 AUDIO
TITLE "Hippodrome's Dream"
PERFORMER "Drajan"
REM COMPOSER ""
INDEX 00 06:03:73
FILE "12. Drajan - Hippodrome's Dream.wav" WAVE
INDEX 01 00:00:00
TRACK 13 AUDIO
TITLE "Someone's Sayin' 'No'"
PERFORMER "Vincent"
REM COMPOSER ""
INDEX 00 05:38:04
FILE "13. Vincent - Someone's Sayin' ''No''.wav" WAVE
INDEX 01 00:00:00
TRACK 14 AUDIO
TITLE "Mutation"
PERFORMER "Carrano"
REM COMPOSER ""
INDEX 00 06:02:57
FILE "14. Carrano - Mutation.wav" WAVE
INDEX 01 00:00:00
 Exact Audio Copy V1.3 from 2. September 2016
EAC extraction logfile from 16. December 2017, 16:28
Various / Italo Disco - The Lost Legends Vol. 6
Used drive : PLEXTOR CD-ROM PX-54TA Adapter: 1 ID: 1
Read mode : Secure
Utilize accurate stream : Yes
Defeat audio cache : Yes
Make use of C2 pointers : No
Read offset correction : 12
Overread into Lead-In and Lead-Out : No
Fill up missing offset samples with silence : Yes
Delete leading and trailing silent blocks : No
Null samples used in CRC calculations : Yes
Used interface : Native Win32 interface for Win NT & 2000
Gap handling : Appended to previous track
Used output format : User Defined Encoder
Selected bitrate : 1024 kBit/s
Quality : High
Add ID3 tag : No
Command line compressor : C:\Program Files (x86)\Exact Audio Copy\Flac\flac-1.3.2-win\flac-1.3.2-win\win64\flac.exe
Additional command line options : -V -6 -T "COMMENT=ripped by Krevetka1972 special for СПАМ -T "ARTIST=%artist%" -T "TITLE=%title%" -T "ALBUM=%albumtitle%" -T "DATE=%year%" -T "TRACKNUMBER=%tracknr%" -T "GENRE=%genre%" -T "ALBUMARTIST=%albuminterpret%" %source% -o Юst%
TOC of the extracted CD
Track | Start | Length | Start sector | End sector
---------------------------------------------------------
1 | 0:00.00 | 5:14.52 | 0 | 23601
2 | 5:14.52 | 4:57.41 | 23602 | 45917
3 | 10:12.18 | 6:03.11 | 45918 | 73153
4 | 16:15.29 | 5:05.31 | 73154 | 96059
5 | 21:20.60 | 6:04.69 | 96060 | 123428
6 | 27:25.54 | 4:19.71 | 123429 | 142924
7 | 31:45.50 | 5:14.72 | 142925 | 166546
8 | 37:00.47 | 6:23.10 | 166547 | 195281
9 | 43:23.57 | 5:58.27 | 195282 | 222158
10 | 49:22.09 | 6:40.74 | 222159 | 252232
11 | 56:03.08 | 6:05.73 | 252233 | 279680
12 | 62:09.06 | 5:40.04 | 279681 | 305184
13 | 67:49.10 | 6:04.57 | 305185 | 332541
14 | 73:53.67 | 4:07.24 | 332542 | 351090
Track 1
Filename G:\Italo Disco - The Lost Legends\Various - 2017 - Italo Disco - The Lost Legends Vol. 6 (Disco Magic Melody # DMM CD 06 I)\01. Demode Boulevard - The Height Of The Fighting.wav
Pre-gap length 0:00:02.00
Peak level 78.1 %
Extraction speed 3.8 X
Track quality 99.9 %
Test CRC 42419418
Copy CRC 42419418
Track not present in AccurateRip database
Copy OK
Track 2
Filename G:\Italo Disco - The Lost Legends\Various - 2017 - Italo Disco - The Lost Legends Vol. 6 (Disco Magic Melody # DMM CD 06 I)\02. Black Tie - Double Time.wav
Pre-gap length 0:00:02.00
Peak level 93.2 %
Extraction speed 4.6 X
Track quality 100.0 %
Test CRC E4FEFF59
Copy CRC E4FEFF59
Track not present in AccurateRip database
Copy OK
Track 3
Filename G:\Italo Disco - The Lost Legends\Various - 2017 - Italo Disco - The Lost Legends Vol. 6 (Disco Magic Melody # DMM CD 06 I)\03. Three Of You - Grace.wav
Pre-gap length 0:00:02.00
Peak level 77.9 %
Extraction speed 5.2 X
Track quality 100.0 %
Test CRC C4CB5DBD
Copy CRC C4CB5DBD
Track not present in AccurateRip database
Copy OK
Track 4
Filename G:\Italo Disco - The Lost Legends\Various - 2017 - Italo Disco - The Lost Legends Vol. 6 (Disco Magic Melody # DMM CD 06 I)\04. Bobby J. - Number One.wav
Pre-gap length 0:00:02.00
Peak level 79.8 %
Extraction speed 5.0 X
Track quality 99.9 %
Test CRC B7A65AC0
Copy CRC B7A65AC0
Track not present in AccurateRip database
Copy OK
Track 5
Filename G:\Italo Disco - The Lost Legends\Various - 2017 - Italo Disco - The Lost Legends Vol. 6 (Disco Magic Melody # DMM CD 06 I)\05. Maini - Love Is Life.wav
Pre-gap length 0:00:02.00
Peak level 99.2 %
Extraction speed 6.1 X
Track quality 100.0 %
Test CRC DB434B26
Copy CRC DB434B26
Track not present in AccurateRip database
Copy OK
Track 6
Filename G:\Italo Disco - The Lost Legends\Various - 2017 - Italo Disco - The Lost Legends Vol. 6 (Disco Magic Melody # DMM CD 06 I)\06. Ubaldo Missoni - Let Me Be Your Man.wav
Pre-gap length 0:00:02.00
Peak level 82.8 %
Extraction speed 5.4 X
Track quality 99.9 %
Test CRC 9DD23B69
Copy CRC 9DD23B69
Track not present in AccurateRip database
Copy OK
Track 7
Filename G:\Italo Disco - The Lost Legends\Various - 2017 - Italo Disco - The Lost Legends Vol. 6 (Disco Magic Melody # DMM CD 06 I)\07. Camomilla - Tonight.wav
Pre-gap length 0:00:02.00
Peak level 76.4 %
Extraction speed 6.6 X
Track quality 100.0 %
Test CRC B8D8C15F
Copy CRC B8D8C15F
Track not present in AccurateRip database
Copy OK
Track 8
Filename G:\Italo Disco - The Lost Legends\Various - 2017 - Italo Disco - The Lost Legends Vol. 6 (Disco Magic Melody # DMM CD 06 I)\08. Bob Robert - Storm In A Teacup.wav
Pre-gap length 0:00:02.00
Peak level 88.9 %
Extraction speed 6.5 X
Track quality 99.9 %
Test CRC B22F6F98
Copy CRC B22F6F98
Track not present in AccurateRip database
Copy OK
Track 9
Filename G:\Italo Disco - The Lost Legends\Various - 2017 - Italo Disco - The Lost Legends Vol. 6 (Disco Magic Melody # DMM CD 06 I)\09. Xario - Are You Leaving.wav
Pre-gap length 0:00:02.00
Peak level 90.2 %
Extraction speed 7.3 X
Track quality 100.0 %
Test CRC 17549241
Copy CRC 17549241
Track not present in AccurateRip database
Copy OK
Track 10
Filename G:\Italo Disco - The Lost Legends\Various - 2017 - Italo Disco - The Lost Legends Vol. 6 (Disco Magic Melody # DMM CD 06 I)\10. New Sin - Black Fantasy.wav
Pre-gap length 0:00:02.00
Peak level 78.9 %
Extraction speed 7.7 X
Track quality 100.0 %
Test CRC 3057711E
Copy CRC 3057711E
Track not present in AccurateRip database
Copy OK
Track 11
Filename G:\Italo Disco - The Lost Legends\Various - 2017 - Italo Disco - The Lost Legends Vol. 6 (Disco Magic Melody # DMM CD 06 I)\11. M & G - Boogie Tonight.wav
Pre-gap length 0:00:02.00
Peak level 96.4 %
Extraction speed 7.9 X
Track quality 100.0 %
Test CRC CDB673BD
Copy CRC CDB673BD
Track not present in AccurateRip database
Copy OK
Track 12
Filename G:\Italo Disco - The Lost Legends\Various - 2017 - Italo Disco - The Lost Legends Vol. 6 (Disco Magic Melody # DMM CD 06 I)\12. Drajan - Hippodrome's Dream.wav
Pre-gap length 0:00:02.00
Peak level 87.8 %
Extraction speed 8.2 X
Track quality 100.0 %
Test CRC E3CFCA00
Copy CRC E3CFCA00
Track not present in AccurateRip database
Copy OK
Track 13
Filename G:\Italo Disco - The Lost Legends\Various - 2017 - Italo Disco - The Lost Legends Vol. 6 (Disco Magic Melody # DMM CD 06 I)\13. Vincent - Someone's Sayin' ''No''.wav
Pre-gap length 0:00:02.00
Peak level 96.5 %
Extraction speed 8.5 X
Track quality 100.0 %
Test CRC 38D29A66
Copy CRC 38D29A66
Track not present in AccurateRip database
Copy OK
Track 14
Filename G:\Italo Disco - The Lost Legends\Various - 2017 - Italo Disco - The Lost Legends Vol. 6 (Disco Magic Melody # DMM CD 06 I)\14. Carrano - Mutation.wav
Pre-gap length 0:00:02.00
Peak level 91.3 %
Extraction speed 7.4 X
Track quality 99.9 %
Test CRC CDACED97
Copy CRC CDACED97
Track not present in AccurateRip database
Copy OK
None of the tracks are present in the AccurateRip database
No errors occurred
End of status report
---- AcoustID Plugin V1.2.0
Total fingerprints: 14
---- CUETools DB Plugin V2.1.6
[CTDB TOCID: ANDFbLJfBkXs2o6Gdum8pG_420o-] found
Submit result: ANDFbLJfBkXs2o6Gdum8pG_420o- has been confirmed
Track | CTDB Status
1 | (1/1) Accurately ripped
2 | (1/1) Accurately ripped
3 | (1/1) Accurately ripped
4 | (1/1) Accurately ripped
5 | (1/1) Accurately ripped
6 | (1/1) Accurately ripped
7 | (1/1) Accurately ripped
8 | (1/1) Accurately ripped
9 | (1/1) Accurately ripped
10 | (1/1) Accurately ripped
11 | (1/1) Accurately ripped
12 | (1/1) Accurately ripped
13 | (1/1) Accurately ripped
14 | (1/1) Accurately ripped
==== Log checksum 4A318CABE0FFD577ACCFDB22161FF7374F2B9CB2CD8E2D3A6F832847D340234E ====
 REM GENRE Italo-Disco
REM DATE 2017
REM DISCID C312490E
REM COMMENT "ExactAudioCopy v1.3"
PERFORMER "Various"
TITLE "Italo Disco - The Lost Legends Vol. 6"
REM COMPOSER ""
FILE "01. Demode Boulevard - The Height Of The Fighting.wav" WAVE
TRACK 01 AUDIO
TITLE "The Height Of The Fighting"
PERFORMER "Demode Boulevard"
REM COMPOSER ""
INDEX 01 00:00:00
TRACK 02 AUDIO
TITLE "Double Time"
PERFORMER "Black Tie"
REM COMPOSER ""
INDEX 00 05:12:52
FILE "02. Black Tie - Double Time.wav" WAVE
INDEX 01 00:00:00
TRACK 03 AUDIO
TITLE "Grace"
PERFORMER "Three Of You"
REM COMPOSER ""
INDEX 00 04:55:41
FILE "03. Three Of You - Grace.wav" WAVE
INDEX 01 00:00:00
TRACK 04 AUDIO
TITLE "Number One"
PERFORMER "Bobby J."
REM COMPOSER ""
INDEX 00 06:01:11
FILE "04. Bobby J. - Number One.wav" WAVE
INDEX 01 00:00:00
TRACK 05 AUDIO
TITLE "Love Is Life"
PERFORMER "Maini"
REM COMPOSER ""
INDEX 00 05:03:31
FILE "05. Maini - Love Is Life.wav" WAVE
INDEX 01 00:00:00
TRACK 06 AUDIO
TITLE "Let Me Be Your Man"
PERFORMER "Ubaldo Missoni"
REM COMPOSER ""
INDEX 00 06:02:69
FILE "06. Ubaldo Missoni - Let Me Be Your Man.wav" WAVE
INDEX 01 00:00:00
TRACK 07 AUDIO
TITLE "Tonight"
PERFORMER "Camomilla"
REM COMPOSER ""
INDEX 00 04:17:71
FILE "07. Camomilla - Tonight.wav" WAVE
INDEX 01 00:00:00
TRACK 08 AUDIO
TITLE "Storm In A Teacup"
PERFORMER "Bob Robert"
REM COMPOSER ""
INDEX 00 05:12:72
FILE "08. Bob Robert - Storm In A Teacup.wav" WAVE
INDEX 01 00:00:00
TRACK 09 AUDIO
TITLE "Are You Leaving"
PERFORMER "Xario"
REM COMPOSER ""
INDEX 00 06:21:10
FILE "09. Xario - Are You Leaving.wav" WAVE
INDEX 01 00:00:00
TRACK 10 AUDIO
TITLE "Black Fantasy"
PERFORMER "New Sin"
REM COMPOSER ""
INDEX 00 05:56:27
FILE "10. New Sin - Black Fantasy.wav" WAVE
INDEX 01 00:00:00
TRACK 11 AUDIO
TITLE "Boogie Tonight"
PERFORMER "M & G"
REM COMPOSER ""
INDEX 00 06:38:74
FILE "11. M & G - Boogie Tonight.wav" WAVE
INDEX 01 00:00:00
TRACK 12 AUDIO
TITLE "Hippodrome's Dream"
PERFORMER "Drajan"
REM COMPOSER ""
INDEX 00 06:03:73
FILE "12. Drajan - Hippodrome's Dream.wav" WAVE
INDEX 01 00:00:00
TRACK 13 AUDIO
TITLE "Someone's Sayin' 'No'"
PERFORMER "Vincent"
REM COMPOSER ""
INDEX 00 05:38:04
FILE "13. Vincent - Someone's Sayin' ''No''.wav" WAVE
INDEX 01 00:00:00
TRACK 14 AUDIO
TITLE "Mutation"
PERFORMER "Carrano"
REM COMPOSER ""
INDEX 00 06:02:57
FILE "14. Carrano - Mutation.wav" WAVE
INDEX 01 00:00:00
01 Fockewulf 190 - Gitano (06:04)
02 Middle Ages - Stop Your Lies (06:12)
03 Nord Est - Overnight (06:08)
04 Bandeaux - Black And White (06:44)
05 Nobel - Turn On Your Radio (06:35)
06 Alex Molo - Look At Me (05:02)
07 John Ryel - The Best Of My Love (05:41)
08 Lenatti - She's A Moon (04:17)
09 Children's Band - Children's Player (06:04)
10 Alter Ego - Just Like A Star (04:48)
11 Bryan Ross - Let's Go (Why Don't You Try) (06:04)
12 Loui$ - Summer In The Dark (05:32)
13 Burlaband - Carnival (Italian Version) (07:03)
Лог создания рипа
 Exact Audio Copy V1.3 from 2. September 2016
EAC extraction logfile from 16. December 2017, 17:31
Various / Italo Disco - The Lost Legends Vol. 7
Used drive : PLEXTOR CD-ROM PX-54TA Adapter: 1 ID: 1
Read mode : Secure
Utilize accurate stream : Yes
Defeat audio cache : Yes
Make use of C2 pointers : No
Read offset correction : 12
Overread into Lead-In and Lead-Out : No
Fill up missing offset samples with silence : Yes
Delete leading and trailing silent blocks : No
Null samples used in CRC calculations : Yes
Used interface : Native Win32 interface for Win NT & 2000
Gap handling : Appended to previous track
Used output format : User Defined Encoder
Selected bitrate : 1024 kBit/s
Quality : High
Add ID3 tag : No
Command line compressor : C:\Program Files (x86)\Exact Audio Copy\Flac\flac-1.3.2-win\flac-1.3.2-win\win64\flac.exe
Additional command line options : -V -6 -T "COMMENT=ripped by Krevetka1972 special for СПАМ -T "ARTIST=%artist%" -T "TITLE=%title%" -T "ALBUM=%albumtitle%" -T "DATE=%year%" -T "TRACKNUMBER=%tracknr%" -T "GENRE=%genre%" -T "ALBUMARTIST=%albuminterpret%" %source% -o Юst%
TOC of the extracted CD
Track | Start | Length | Start sector | End sector
---------------------------------------------------------
1 | 0:00.00 | 6:04.06 | 0 | 27305
2 | 6:04.06 | 6:12.03 | 27306 | 55208
3 | 12:16.09 | 6:07.71 | 55209 | 82804
4 | 18:24.05 | 6:43.52 | 82805 | 113081
5 | 25:07.57 | 6:34.21 | 113082 | 142652
6 | 31:42.03 | 5:02.08 | 142653 | 165310
7 | 36:44.11 | 5:40.22 | 165311 | 190832
8 | 42:24.33 | 4:16.34 | 190833 | 210066
9 | 46:40.67 | 6:03.43 | 210067 | 237334
10 | 52:44.35 | 4:48.10 | 237335 | 258944
11 | 57:32.45 | 6:03.43 | 258945 | 286212
12 | 63:36.13 | 5:32.05 | 286213 | 311117
13 | 69:08.18 | 7:02.71 | 311118 | 342838
Track 1
Filename G:\Italo Disco - The Lost Legends\Various - 2017 - Italo Disco - The Lost Legends Vol. 7 (Disco Magic Melody # DMM CD 07 I)\01. Fockewulf 190 - Gitano.wav
Pre-gap length 0:00:02.00
Peak level 76.4 %
Extraction speed 4.3 X
Track quality 100.0 %
Test CRC B2EA1A6D
Copy CRC B2EA1A6D
Track not present in AccurateRip database
Copy OK
Track 2
Filename G:\Italo Disco - The Lost Legends\Various - 2017 - Italo Disco - The Lost Legends Vol. 7 (Disco Magic Melody # DMM CD 07 I)\02. Middle Ages - Stop Your Lies.wav
Pre-gap length 0:00:02.00
Peak level 100.0 %
Extraction speed 4.9 X
Track quality 100.0 %
Test CRC 549E5868
Copy CRC 549E5868
Track not present in AccurateRip database
Copy OK
Track 3
Filename G:\Italo Disco - The Lost Legends\Various - 2017 - Italo Disco - The Lost Legends Vol. 7 (Disco Magic Melody # DMM CD 07 I)\03. Nord Est - Overnight.wav
Pre-gap length 0:00:02.00
Peak level 72.6 %
Extraction speed 5.4 X
Track quality 100.0 %
Test CRC E32B80C4
Copy CRC E32B80C4
Track not present in AccurateRip database
Copy OK
Track 4
Filename G:\Italo Disco - The Lost Legends\Various - 2017 - Italo Disco - The Lost Legends Vol. 7 (Disco Magic Melody # DMM CD 07 I)\04. Bandeaux - Black And White.wav
Pre-gap length 0:00:02.00
Peak level 97.7 %
Extraction speed 5.5 X
Track quality 99.9 %
Test CRC AF3E6D09
Copy CRC AF3E6D09
Track not present in AccurateRip database
Copy OK
Track 5
Filename G:\Italo Disco - The Lost Legends\Various - 2017 - Italo Disco - The Lost Legends Vol. 7 (Disco Magic Melody # DMM CD 07 I)\05. Nobel - Turn On Your Radio.wav
Pre-gap length 0:00:02.00
Peak level 99.7 %
Extraction speed 6.4 X
Track quality 100.0 %
Test CRC AA848067
Copy CRC AA848067
Track not present in AccurateRip database
Copy OK
Track 6
Filename G:\Italo Disco - The Lost Legends\Various - 2017 - Italo Disco - The Lost Legends Vol. 7 (Disco Magic Melody # DMM CD 07 I)\06. Alex Molo - Look At Me.wav
Pre-gap length 0:00:02.00
Peak level 79.5 %
Extraction speed 5.9 X
Track quality 99.9 %
Test CRC E8953E43
Copy CRC E8953E43
Track not present in AccurateRip database
Copy OK
Track 7
Filename G:\Italo Disco - The Lost Legends\Various - 2017 - Italo Disco - The Lost Legends Vol. 7 (Disco Magic Melody # DMM CD 07 I)\07. John Ryel - The Best Of My Love.wav
Pre-gap length 0:00:02.00
Peak level 84.5 %
Extraction speed 6.3 X
Track quality 99.9 %
Test CRC 0FAAC899
Copy CRC 0FAAC899
Track not present in AccurateRip database
Copy OK
Track 8
Filename G:\Italo Disco - The Lost Legends\Various - 2017 - Italo Disco - The Lost Legends Vol. 7 (Disco Magic Melody # DMM CD 07 I)\08. Lenatti - She's A Moon.wav
Pre-gap length 0:00:02.00
Peak level 75.0 %
Extraction speed 7.0 X
Track quality 100.0 %
Test CRC D4AFC2EB
Copy CRC D4AFC2EB
Track not present in AccurateRip database
Copy OK
Track 9
Filename G:\Italo Disco - The Lost Legends\Various - 2017 - Italo Disco - The Lost Legends Vol. 7 (Disco Magic Melody # DMM CD 07 I)\09. Children's Band - Children's Player.wav
Pre-gap length 0:00:02.00
Peak level 97.7 %
Extraction speed 7.4 X
Track quality 100.0 %
Test CRC C50948CD
Copy CRC C50948CD
Track not present in AccurateRip database
Copy OK
Track 10
Filename G:\Italo Disco - The Lost Legends\Various - 2017 - Italo Disco - The Lost Legends Vol. 7 (Disco Magic Melody # DMM CD 07 I)\10. Alter Ego - Just Like A Star.wav
Pre-gap length 0:00:02.00
Peak level 82.1 %
Extraction speed 6.8 X
Track quality 99.9 %
Test CRC 07F85CD9
Copy CRC 07F85CD9
Track not present in AccurateRip database
Copy OK
Track 11
Filename G:\Italo Disco - The Lost Legends\Various - 2017 - Italo Disco - The Lost Legends Vol. 7 (Disco Magic Melody # DMM CD 07 I)\11. Bryan Ross - Let's Go (Why Don't You Try).wav
Pre-gap length 0:00:02.00
Peak level 90.7 %
Extraction speed 8.0 X
Track quality 100.0 %
Test CRC 05D337BB
Copy CRC 05D337BB
Track not present in AccurateRip database
Copy OK
Track 12
Filename G:\Italo Disco - The Lost Legends\Various - 2017 - Italo Disco - The Lost Legends Vol. 7 (Disco Magic Melody # DMM CD 07 I)\12. Loui$ - Summer In The Dark.wav
Pre-gap length 0:00:02.00
Peak level 88.0 %
Extraction speed 8.3 X
Track quality 100.0 %
Test CRC F22264C7
Copy CRC F22264C7
Track not present in AccurateRip database
Copy OK
Track 13
Filename G:\Italo Disco - The Lost Legends\Various - 2017 - Italo Disco - The Lost Legends Vol. 7 (Disco Magic Melody # DMM CD 07 I)\13. Burlaband - Carnival (Italian Version).wav
Pre-gap length 0:00:02.00
Peak level 82.1 %
Extraction speed 8.1 X
Track quality 99.9 %
Test CRC 9DA73202
Copy CRC 9DA73202
Track not present in AccurateRip database
Copy OK
None of the tracks are present in the AccurateRip database
No errors occurred
End of status report
---- AcoustID Plugin V1.2.0
Total fingerprints: 13
---- CUETools DB Plugin V2.1.6
[CTDB TOCID: AfZstpuaswTXNbHM0Z.QBaoXPzQ-] disk not present in database
Submit result: AfZstpuaswTXNbHM0Z.QBaoXPzQ- has been uploaded
==== Log checksum CEE937B6D7A600D3422D35C6266D3E036A824BC7285DCFA13BAF02F5E308B253 ====
Содержание индексной карты (.CUE)
 REM GENRE Italo-Disco
REM DATE 2017
REM DISCID AD11DB0D
REM COMMENT "ExactAudioCopy v1.3"
PERFORMER "Various"
TITLE "Italo Disco - The Lost Legends Vol. 7"
REM COMPOSER ""
FILE "01. Fockewulf 190 - Gitano.wav" WAVE
TRACK 01 AUDIO
TITLE "Gitano"
PERFORMER "Fockewulf 190"
REM COMPOSER ""
INDEX 01 00:00:00
TRACK 02 AUDIO
TITLE "Stop Your Lies"
PERFORMER "Middle Ages"
REM COMPOSER ""
INDEX 00 06:02:06
FILE "02. Middle Ages - Stop Your Lies.wav" WAVE
INDEX 01 00:00:00
TRACK 03 AUDIO
TITLE "Overnight"
PERFORMER "Nord Est"
REM COMPOSER ""
INDEX 00 06:10:03
FILE "03. Nord Est - Overnight.wav" WAVE
INDEX 01 00:00:00
TRACK 04 AUDIO
TITLE "Black And White"
PERFORMER "Bandeaux"
REM COMPOSER ""
INDEX 00 06:05:71
FILE "04. Bandeaux - Black And White.wav" WAVE
INDEX 01 00:00:00
TRACK 05 AUDIO
TITLE "Turn On Your Radio"
PERFORMER "Nobel"
REM COMPOSER ""
INDEX 00 06:41:52
FILE "05. Nobel - Turn On Your Radio.wav" WAVE
INDEX 01 00:00:00
TRACK 06 AUDIO
TITLE "Look At Me"
PERFORMER "Alex Molo"
REM COMPOSER ""
INDEX 00 06:32:21
FILE "06. Alex Molo - Look At Me.wav" WAVE
INDEX 01 00:00:00
TRACK 07 AUDIO
TITLE "The Best Of My Love"
PERFORMER "John Ryel"
REM COMPOSER ""
INDEX 00 05:00:08
FILE "07. John Ryel - The Best Of My Love.wav" WAVE
INDEX 01 00:00:00
TRACK 08 AUDIO
TITLE "She's A Moon"
PERFORMER "Lenatti"
REM COMPOSER ""
INDEX 00 05:38:22
FILE "08. Lenatti - She's A Moon.wav" WAVE
INDEX 01 00:00:00
TRACK 09 AUDIO
TITLE "Children's Player"
PERFORMER "Children's Band"
REM COMPOSER ""
INDEX 00 04:14:34
FILE "09. Children's Band - Children's Player.wav" WAVE
INDEX 01 00:00:00
TRACK 10 AUDIO
TITLE "Just Like A Star"
PERFORMER "Alter Ego "
REM COMPOSER ""
INDEX 00 06:01:43
FILE "10. Alter Ego - Just Like A Star.wav" WAVE
INDEX 01 00:00:00
TRACK 11 AUDIO
TITLE "Let's Go (Why Don't You Try)"
PERFORMER "Bryan Ross"
REM COMPOSER ""
INDEX 00 04:46:10
FILE "11. Bryan Ross - Let's Go (Why Don't You Try).wav" WAVE
INDEX 01 00:00:00
TRACK 12 AUDIO
TITLE "Summer In The Dark"
PERFORMER "Loui$"
REM COMPOSER ""
INDEX 00 06:01:43
FILE "12. Loui$ - Summer In The Dark.wav" WAVE
INDEX 01 00:00:00
TRACK 13 AUDIO
TITLE "Carnival (Italian Version)"
PERFORMER "Burlaband"
REM COMPOSER ""
INDEX 00 05:30:05
FILE "13. Burlaband - Carnival (Italian Version).wav" WAVE
INDEX 01 00:00:00
 Exact Audio Copy V1.3 from 2. September 2016
EAC extraction logfile from 16. December 2017, 17:31
Various / Italo Disco - The Lost Legends Vol. 7
Used drive : PLEXTOR CD-ROM PX-54TA Adapter: 1 ID: 1
Read mode : Secure
Utilize accurate stream : Yes
Defeat audio cache : Yes
Make use of C2 pointers : No
Read offset correction : 12
Overread into Lead-In and Lead-Out : No
Fill up missing offset samples with silence : Yes
Delete leading and trailing silent blocks : No
Null samples used in CRC calculations : Yes
Used interface : Native Win32 interface for Win NT & 2000
Gap handling : Appended to previous track
Used output format : User Defined Encoder
Selected bitrate : 1024 kBit/s
Quality : High
Add ID3 tag : No
Command line compressor : C:\Program Files (x86)\Exact Audio Copy\Flac\flac-1.3.2-win\flac-1.3.2-win\win64\flac.exe
Additional command line options : -V -6 -T "COMMENT=ripped by Krevetka1972 special for СПАМ -T "ARTIST=%artist%" -T "TITLE=%title%" -T "ALBUM=%albumtitle%" -T "DATE=%year%" -T "TRACKNUMBER=%tracknr%" -T "GENRE=%genre%" -T "ALBUMARTIST=%albuminterpret%" %source% -o Юst%
TOC of the extracted CD
Track | Start | Length | Start sector | End sector
---------------------------------------------------------
1 | 0:00.00 | 6:04.06 | 0 | 27305
2 | 6:04.06 | 6:12.03 | 27306 | 55208
3 | 12:16.09 | 6:07.71 | 55209 | 82804
4 | 18:24.05 | 6:43.52 | 82805 | 113081
5 | 25:07.57 | 6:34.21 | 113082 | 142652
6 | 31:42.03 | 5:02.08 | 142653 | 165310
7 | 36:44.11 | 5:40.22 | 165311 | 190832
8 | 42:24.33 | 4:16.34 | 190833 | 210066
9 | 46:40.67 | 6:03.43 | 210067 | 237334
10 | 52:44.35 | 4:48.10 | 237335 | 258944
11 | 57:32.45 | 6:03.43 | 258945 | 286212
12 | 63:36.13 | 5:32.05 | 286213 | 311117
13 | 69:08.18 | 7:02.71 | 311118 | 342838
Track 1
Filename G:\Italo Disco - The Lost Legends\Various - 2017 - Italo Disco - The Lost Legends Vol. 7 (Disco Magic Melody # DMM CD 07 I)\01. Fockewulf 190 - Gitano.wav
Pre-gap length 0:00:02.00
Peak level 76.4 %
Extraction speed 4.3 X
Track quality 100.0 %
Test CRC B2EA1A6D
Copy CRC B2EA1A6D
Track not present in AccurateRip database
Copy OK
Track 2
Filename G:\Italo Disco - The Lost Legends\Various - 2017 - Italo Disco - The Lost Legends Vol. 7 (Disco Magic Melody # DMM CD 07 I)\02. Middle Ages - Stop Your Lies.wav
Pre-gap length 0:00:02.00
Peak level 100.0 %
Extraction speed 4.9 X
Track quality 100.0 %
Test CRC 549E5868
Copy CRC 549E5868
Track not present in AccurateRip database
Copy OK
Track 3
Filename G:\Italo Disco - The Lost Legends\Various - 2017 - Italo Disco - The Lost Legends Vol. 7 (Disco Magic Melody # DMM CD 07 I)\03. Nord Est - Overnight.wav
Pre-gap length 0:00:02.00
Peak level 72.6 %
Extraction speed 5.4 X
Track quality 100.0 %
Test CRC E32B80C4
Copy CRC E32B80C4
Track not present in AccurateRip database
Copy OK
Track 4
Filename G:\Italo Disco - The Lost Legends\Various - 2017 - Italo Disco - The Lost Legends Vol. 7 (Disco Magic Melody # DMM CD 07 I)\04. Bandeaux - Black And White.wav
Pre-gap length 0:00:02.00
Peak level 97.7 %
Extraction speed 5.5 X
Track quality 99.9 %
Test CRC AF3E6D09
Copy CRC AF3E6D09
Track not present in AccurateRip database
Copy OK
Track 5
Filename G:\Italo Disco - The Lost Legends\Various - 2017 - Italo Disco - The Lost Legends Vol. 7 (Disco Magic Melody # DMM CD 07 I)\05. Nobel - Turn On Your Radio.wav
Pre-gap length 0:00:02.00
Peak level 99.7 %
Extraction speed 6.4 X
Track quality 100.0 %
Test CRC AA848067
Copy CRC AA848067
Track not present in AccurateRip database
Copy OK
Track 6
Filename G:\Italo Disco - The Lost Legends\Various - 2017 - Italo Disco - The Lost Legends Vol. 7 (Disco Magic Melody # DMM CD 07 I)\06. Alex Molo - Look At Me.wav
Pre-gap length 0:00:02.00
Peak level 79.5 %
Extraction speed 5.9 X
Track quality 99.9 %
Test CRC E8953E43
Copy CRC E8953E43
Track not present in AccurateRip database
Copy OK
Track 7
Filename G:\Italo Disco - The Lost Legends\Various - 2017 - Italo Disco - The Lost Legends Vol. 7 (Disco Magic Melody # DMM CD 07 I)\07. John Ryel - The Best Of My Love.wav
Pre-gap length 0:00:02.00
Peak level 84.5 %
Extraction speed 6.3 X
Track quality 99.9 %
Test CRC 0FAAC899
Copy CRC 0FAAC899
Track not present in AccurateRip database
Copy OK
Track 8
Filename G:\Italo Disco - The Lost Legends\Various - 2017 - Italo Disco - The Lost Legends Vol. 7 (Disco Magic Melody # DMM CD 07 I)\08. Lenatti - She's A Moon.wav
Pre-gap length 0:00:02.00
Peak level 75.0 %
Extraction speed 7.0 X
Track quality 100.0 %
Test CRC D4AFC2EB
Copy CRC D4AFC2EB
Track not present in AccurateRip database
Copy OK
Track 9
Filename G:\Italo Disco - The Lost Legends\Various - 2017 - Italo Disco - The Lost Legends Vol. 7 (Disco Magic Melody # DMM CD 07 I)\09. Children's Band - Children's Player.wav
Pre-gap length 0:00:02.00
Peak level 97.7 %
Extraction speed 7.4 X
Track quality 100.0 %
Test CRC C50948CD
Copy CRC C50948CD
Track not present in AccurateRip database
Copy OK
Track 10
Filename G:\Italo Disco - The Lost Legends\Various - 2017 - Italo Disco - The Lost Legends Vol. 7 (Disco Magic Melody # DMM CD 07 I)\10. Alter Ego - Just Like A Star.wav
Pre-gap length 0:00:02.00
Peak level 82.1 %
Extraction speed 6.8 X
Track quality 99.9 %
Test CRC 07F85CD9
Copy CRC 07F85CD9
Track not present in AccurateRip database
Copy OK
Track 11
Filename G:\Italo Disco - The Lost Legends\Various - 2017 - Italo Disco - The Lost Legends Vol. 7 (Disco Magic Melody # DMM CD 07 I)\11. Bryan Ross - Let's Go (Why Don't You Try).wav
Pre-gap length 0:00:02.00
Peak level 90.7 %
Extraction speed 8.0 X
Track quality 100.0 %
Test CRC 05D337BB
Copy CRC 05D337BB
Track not present in AccurateRip database
Copy OK
Track 12
Filename G:\Italo Disco - The Lost Legends\Various - 2017 - Italo Disco - The Lost Legends Vol. 7 (Disco Magic Melody # DMM CD 07 I)\12. Loui$ - Summer In The Dark.wav
Pre-gap length 0:00:02.00
Peak level 88.0 %
Extraction speed 8.3 X
Track quality 100.0 %
Test CRC F22264C7
Copy CRC F22264C7
Track not present in AccurateRip database
Copy OK
Track 13
Filename G:\Italo Disco - The Lost Legends\Various - 2017 - Italo Disco - The Lost Legends Vol. 7 (Disco Magic Melody # DMM CD 07 I)\13. Burlaband - Carnival (Italian Version).wav
Pre-gap length 0:00:02.00
Peak level 82.1 %
Extraction speed 8.1 X
Track quality 99.9 %
Test CRC 9DA73202
Copy CRC 9DA73202
Track not present in AccurateRip database
Copy OK
None of the tracks are present in the AccurateRip database
No errors occurred
End of status report
---- AcoustID Plugin V1.2.0
Total fingerprints: 13
---- CUETools DB Plugin V2.1.6
[CTDB TOCID: AfZstpuaswTXNbHM0Z.QBaoXPzQ-] disk not present in database
Submit result: AfZstpuaswTXNbHM0Z.QBaoXPzQ- has been uploaded
==== Log checksum CEE937B6D7A600D3422D35C6266D3E036A824BC7285DCFA13BAF02F5E308B253 ====
 REM GENRE Italo-Disco
REM DATE 2017
REM DISCID AD11DB0D
REM COMMENT "ExactAudioCopy v1.3"
PERFORMER "Various"
TITLE "Italo Disco - The Lost Legends Vol. 7"
REM COMPOSER ""
FILE "01. Fockewulf 190 - Gitano.wav" WAVE
TRACK 01 AUDIO
TITLE "Gitano"
PERFORMER "Fockewulf 190"
REM COMPOSER ""
INDEX 01 00:00:00
TRACK 02 AUDIO
TITLE "Stop Your Lies"
PERFORMER "Middle Ages"
REM COMPOSER ""
INDEX 00 06:02:06
FILE "02. Middle Ages - Stop Your Lies.wav" WAVE
INDEX 01 00:00:00
TRACK 03 AUDIO
TITLE "Overnight"
PERFORMER "Nord Est"
REM COMPOSER ""
INDEX 00 06:10:03
FILE "03. Nord Est - Overnight.wav" WAVE
INDEX 01 00:00:00
TRACK 04 AUDIO
TITLE "Black And White"
PERFORMER "Bandeaux"
REM COMPOSER ""
INDEX 00 06:05:71
FILE "04. Bandeaux - Black And White.wav" WAVE
INDEX 01 00:00:00
TRACK 05 AUDIO
TITLE "Turn On Your Radio"
PERFORMER "Nobel"
REM COMPOSER ""
INDEX 00 06:41:52
FILE "05. Nobel - Turn On Your Radio.wav" WAVE
INDEX 01 00:00:00
TRACK 06 AUDIO
TITLE "Look At Me"
PERFORMER "Alex Molo"
REM COMPOSER ""
INDEX 00 06:32:21
FILE "06. Alex Molo - Look At Me.wav" WAVE
INDEX 01 00:00:00
TRACK 07 AUDIO
TITLE "The Best Of My Love"
PERFORMER "John Ryel"
REM COMPOSER ""
INDEX 00 05:00:08
FILE "07. John Ryel - The Best Of My Love.wav" WAVE
INDEX 01 00:00:00
TRACK 08 AUDIO
TITLE "She's A Moon"
PERFORMER "Lenatti"
REM COMPOSER ""
INDEX 00 05:38:22
FILE "08. Lenatti - She's A Moon.wav" WAVE
INDEX 01 00:00:00
TRACK 09 AUDIO
TITLE "Children's Player"
PERFORMER "Children's Band"
REM COMPOSER ""
INDEX 00 04:14:34
FILE "09. Children's Band - Children's Player.wav" WAVE
INDEX 01 00:00:00
TRACK 10 AUDIO
TITLE "Just Like A Star"
PERFORMER "Alter Ego "
REM COMPOSER ""
INDEX 00 06:01:43
FILE "10. Alter Ego - Just Like A Star.wav" WAVE
INDEX 01 00:00:00
TRACK 11 AUDIO
TITLE "Let's Go (Why Don't You Try)"
PERFORMER "Bryan Ross"
REM COMPOSER ""
INDEX 00 04:46:10
FILE "11. Bryan Ross - Let's Go (Why Don't You Try).wav" WAVE
INDEX 01 00:00:00
TRACK 12 AUDIO
TITLE "Summer In The Dark"
PERFORMER "Loui$"
REM COMPOSER ""
INDEX 00 06:01:43
FILE "12. Loui$ - Summer In The Dark.wav" WAVE
INDEX 01 00:00:00
TRACK 13 AUDIO
TITLE "Carnival (Italian Version)"
PERFORMER "Burlaband"
REM COMPOSER ""
INDEX 00 05:30:05
FILE "13. Burlaband - Carnival (Italian Version).wav" WAVE
INDEX 01 00:00:00
01 M. Claude - Rain Dance (06:15)
02 Happen D.J. - Don't Waste Your Time (05:46)
03 Vinicio - Dance You And Me (05:01)
04 Lucio David - Close To Me (05:18)
05 Magic Sound - To Haldin (06:41)
06 Kevin Johnson - Video Night (05:39)
07 Sensitive - Driving (07:01)
08 New Glory - Love Is In Your Eyes (05:31)
09 Steve Darracq - Keep Crying (06:59)
10 Phil Grant - Hey Girl (05:50)
11 Giak - lnside You (07:16)
12 Larry Day - Fashion Girl (05:36)
13 Disasters - Oh My God, This Sound... (06:27)
Лог создания рипа
 Exact Audio Copy V1.3 from 2. September 2016
EAC extraction logfile from 16. December 2017, 20:38
Various / Italo Disco - The Lost Legends Vol. 8
Used drive : PLEXTOR CD-ROM PX-54TA Adapter: 1 ID: 1
Read mode : Secure
Utilize accurate stream : Yes
Defeat audio cache : Yes
Make use of C2 pointers : No
Read offset correction : 12
Overread into Lead-In and Lead-Out : No
Fill up missing offset samples with silence : Yes
Delete leading and trailing silent blocks : No
Null samples used in CRC calculations : Yes
Used interface : Native Win32 interface for Win NT & 2000
Gap handling : Appended to previous track
Used output format : User Defined Encoder
Selected bitrate : 1024 kBit/s
Quality : High
Add ID3 tag : No
Command line compressor : C:\Program Files (x86)\Exact Audio Copy\Flac\flac-1.3.2-win\flac-1.3.2-win\win64\flac.exe
Additional command line options : -V -6 -T "COMMENT=ripped by Krevetka1972 special for СПАМ -T "ARTIST=%artist%" -T "TITLE=%title%" -T "ALBUM=%albumtitle%" -T "DATE=%year%" -T "TRACKNUMBER=%tracknr%" -T "GENRE=%genre%" -T "ALBUMARTIST=%albuminterpret%" %source% -o Юst%
TOC of the extracted CD
Track | Start | Length | Start sector | End sector
---------------------------------------------------------
1 | 0:00.00 | 6:14.43 | 0 | 28092
2 | 6:14.43 | 5:46.10 | 28093 | 54052
3 | 12:00.53 | 5:00.35 | 54053 | 76587
4 | 17:01.13 | 5:17.60 | 76588 | 100422
5 | 22:18.73 | 6:40.59 | 100423 | 130481
6 | 28:59.57 | 5:38.29 | 130482 | 155860
7 | 34:38.11 | 7:00.40 | 155861 | 187400
8 | 41:38.51 | 5:30.15 | 187401 | 212165
9 | 47:08.66 | 6:58.36 | 212166 | 243551
10 | 54:07.27 | 5:49.43 | 243552 | 269769
11 | 59:56.70 | 7:15.71 | 269770 | 302465
12 | 67:12.66 | 5:36.07 | 302466 | 327672
13 | 72:48.73 | 6:26.33 | 327673 | 356655
Track 1
Filename G:\Italo Disco - The Lost Legends\Various - 2017 - Italo Disco - The Lost Legends Vol. 8 (Disco Magic Melody # DMM CD 08 I)\01. M. Claude - Rain Dance.wav
Pre-gap length 0:00:02.00
Peak level 70.2 %
Extraction speed 4.3 X
Track quality 100.0 %
Test CRC 3D408EE8
Copy CRC 3D408EE8
Track not present in AccurateRip database
Copy OK
Track 2
Filename G:\Italo Disco - The Lost Legends\Various - 2017 - Italo Disco - The Lost Legends Vol. 8 (Disco Magic Melody # DMM CD 08 I)\02. Happen D.j. - Don't Waste Your Time.wav
Pre-gap length 0:00:02.00
Peak level 96.9 %
Extraction speed 4.8 X
Track quality 100.0 %
Test CRC 1ECC85B3
Copy CRC 1ECC85B3
Track not present in AccurateRip database
Copy OK
Track 3
Filename G:\Italo Disco - The Lost Legends\Various - 2017 - Italo Disco - The Lost Legends Vol. 8 (Disco Magic Melody # DMM CD 08 I)\03. Vinicio - Dance You And Me.wav
Pre-gap length 0:00:02.00
Peak level 78.6 %
Extraction speed 4.7 X
Track quality 99.9 %
Test CRC 95681D8B
Copy CRC 95681D8B
Track not present in AccurateRip database
Copy OK
Track 4
Filename G:\Italo Disco - The Lost Legends\Various - 2017 - Italo Disco - The Lost Legends Vol. 8 (Disco Magic Melody # DMM CD 08 I)\04. Lucio David - Close To Me.wav
Pre-gap length 0:00:02.00
Peak level 75.7 %
Extraction speed 5.7 X
Track quality 100.0 %
Test CRC EB2000DA
Copy CRC EB2000DA
Track not present in AccurateRip database
Copy OK
Track 5
Filename G:\Italo Disco - The Lost Legends\Various - 2017 - Italo Disco - The Lost Legends Vol. 8 (Disco Magic Melody # DMM CD 08 I)\05. Magic Sound - To Haldin.wav
Pre-gap length 0:00:02.00
Peak level 93.9 %
Extraction speed 6.2 X
Track quality 100.0 %
Test CRC 4F0B81A1
Copy CRC 4F0B81A1
Track not present in AccurateRip database
Copy OK
Track 6
Filename G:\Italo Disco - The Lost Legends\Various - 2017 - Italo Disco - The Lost Legends Vol. 8 (Disco Magic Melody # DMM CD 08 I)\06. Kevin Johnson - Video Night.wav
Pre-gap length 0:00:02.00
Peak level 87.4 %
Extraction speed 6.5 X
Track quality 100.0 %
Test CRC F630A561
Copy CRC F630A561
Track not present in AccurateRip database
Copy OK
Track 7
Filename G:\Italo Disco - The Lost Legends\Various - 2017 - Italo Disco - The Lost Legends Vol. 8 (Disco Magic Melody # DMM CD 08 I)\07. Sensitive - Driving.wav
Pre-gap length 0:00:02.00
Peak level 76.3 %
Extraction speed 7.0 X
Track quality 100.0 %
Test CRC 24B62F42
Copy CRC 24B62F42
Track not present in AccurateRip database
Copy OK
Track 8
Filename G:\Italo Disco - The Lost Legends\Various - 2017 - Italo Disco - The Lost Legends Vol. 8 (Disco Magic Melody # DMM CD 08 I)\08. New Glory - Love Is In Your Eyes.wav
Pre-gap length 0:00:02.00
Peak level 78.9 %
Extraction speed 7.2 X
Track quality 100.0 %
Test CRC 0A893C7F
Copy CRC 0A893C7F
Track not present in AccurateRip database
Copy OK
Track 9
Filename G:\Italo Disco - The Lost Legends\Various - 2017 - Italo Disco - The Lost Legends Vol. 8 (Disco Magic Melody # DMM CD 08 I)\09. Steve Darracq - Keep Crying.wav
Pre-gap length 0:00:02.00
Peak level 76.9 %
Extraction speed 7.7 X
Track quality 100.0 %
Test CRC 18DCB4CF
Copy CRC 18DCB4CF
Track not present in AccurateRip database
Copy OK
Track 10
Filename G:\Italo Disco - The Lost Legends\Various - 2017 - Italo Disco - The Lost Legends Vol. 8 (Disco Magic Melody # DMM CD 08 I)\10. Phil Grant - Hey Girl.wav
Pre-gap length 0:00:02.00
Peak level 98.1 %
Extraction speed 7.2 X
Track quality 99.9 %
Test CRC 21938842
Copy CRC 21938842
Track not present in AccurateRip database
Copy OK
Track 11
Filename G:\Italo Disco - The Lost Legends\Various - 2017 - Italo Disco - The Lost Legends Vol. 8 (Disco Magic Melody # DMM CD 08 I)\11. Giak - lnside You.wav
Pre-gap length 0:00:02.00
Peak level 76.8 %
Extraction speed 8.3 X
Track quality 100.0 %
Test CRC B9C9003B
Copy CRC B9C9003B
Track not present in AccurateRip database
Copy OK
Track 12
Filename G:\Italo Disco - The Lost Legends\Various - 2017 - Italo Disco - The Lost Legends Vol. 8 (Disco Magic Melody # DMM CD 08 I)\12. Larry Day - Fashion Girl.wav
Pre-gap length 0:00:02.00
Peak level 80.6 %
Extraction speed 8.4 X
Track quality 100.0 %
Test CRC 65D0A590
Copy CRC 65D0A590
Track not present in AccurateRip database
Copy OK
Track 13
Filename G:\Italo Disco - The Lost Legends\Various - 2017 - Italo Disco - The Lost Legends Vol. 8 (Disco Magic Melody # DMM CD 08 I)\13. Disasters - Oh My God, This Sound....wav
Pre-gap length 0:00:02.00
Peak level 95.3 %
Extraction speed 8.1 X
Track quality 99.9 %
Test CRC 0E3478B0
Copy CRC 0E3478B0
Track not present in AccurateRip database
Copy OK
None of the tracks are present in the AccurateRip database
No errors occurred
End of status report
---- AcoustID Plugin V1.2.0
Total fingerprints: 13
---- CUETools DB Plugin V2.1.6
[CTDB TOCID: SJZbqDE1wFKcGe3vl6iUO6ZKFGg-] disk not present in database
Submit result: SJZbqDE1wFKcGe3vl6iUO6ZKFGg- has been uploaded
==== Log checksum C56A7AA33B867F84B3C871A971E172A1BA32953D3A44E7500914D997B844990B ====
Содержание индексной карты (.CUE)
 REM GENRE Italo-Disco
REM DATE 2017
REM DISCID 9A12930D
REM COMMENT "ExactAudioCopy v1.3"
PERFORMER "Various"
TITLE "Italo Disco - The Lost Legends Vol. 8"
REM COMPOSER ""
FILE "01. M. Claude - Rain Dance.wav" WAVE
TRACK 01 AUDIO
TITLE "Rain Dance"
PERFORMER "M. Claude"
REM COMPOSER ""
INDEX 01 00:00:00
TRACK 02 AUDIO
TITLE "Don't Waste Your Time"
PERFORMER "Happen D.j."
REM COMPOSER ""
INDEX 00 06:12:43
FILE "02. Happen D.j. - Don't Waste Your Time.wav" WAVE
INDEX 01 00:00:00
TRACK 03 AUDIO
TITLE "Dance You And Me"
PERFORMER "Vinicio"
REM COMPOSER ""
INDEX 00 05:44:10
FILE "03. Vinicio - Dance You And Me.wav" WAVE
INDEX 01 00:00:00
TRACK 04 AUDIO
TITLE "Close To Me"
PERFORMER "Lucio David"
REM COMPOSER ""
INDEX 00 04:58:35
FILE "04. Lucio David - Close To Me.wav" WAVE
INDEX 01 00:00:00
TRACK 05 AUDIO
TITLE "To Haldin"
PERFORMER "Magic Sound"
REM COMPOSER ""
INDEX 00 05:15:60
FILE "05. Magic Sound - To Haldin.wav" WAVE
INDEX 01 00:00:00
TRACK 06 AUDIO
TITLE "Video Night"
PERFORMER "Kevin Johnson"
REM COMPOSER ""
INDEX 00 06:38:59
FILE "06. Kevin Johnson - Video Night.wav" WAVE
INDEX 01 00:00:00
TRACK 07 AUDIO
TITLE "Driving"
PERFORMER "Sensitive"
REM COMPOSER ""
INDEX 00 05:36:29
FILE "07. Sensitive - Driving.wav" WAVE
INDEX 01 00:00:00
TRACK 08 AUDIO
TITLE "Love Is In Your Eyes"
PERFORMER "New Glory"
REM COMPOSER ""
INDEX 00 06:58:40
FILE "08. New Glory - Love Is In Your Eyes.wav" WAVE
INDEX 01 00:00:00
TRACK 09 AUDIO
TITLE "Keep Crying"
PERFORMER "Steve Darracq"
REM COMPOSER ""
INDEX 00 05:28:15
FILE "09. Steve Darracq - Keep Crying.wav" WAVE
INDEX 01 00:00:00
TRACK 10 AUDIO
TITLE "Hey Girl"
PERFORMER "Phil Grant"
REM COMPOSER ""
INDEX 00 06:56:36
FILE "10. Phil Grant - Hey Girl.wav" WAVE
INDEX 01 00:00:00
TRACK 11 AUDIO
TITLE "lnside You"
PERFORMER "Giak"
REM COMPOSER ""
INDEX 00 05:47:43
FILE "11. Giak - lnside You.wav" WAVE
INDEX 01 00:00:00
TRACK 12 AUDIO
TITLE "Fashion Girl"
PERFORMER "Larry Day"
REM COMPOSER ""
INDEX 00 07:13:71
FILE "12. Larry Day - Fashion Girl.wav" WAVE
INDEX 01 00:00:00
TRACK 13 AUDIO
TITLE "Oh My God, This Sound..."
PERFORMER "Disasters"
REM COMPOSER ""
INDEX 00 05:34:07
FILE "13. Disasters - Oh My God, This Sound....wav" WAVE
INDEX 01 00:00:00
 Exact Audio Copy V1.3 from 2. September 2016
EAC extraction logfile from 16. December 2017, 20:38
Various / Italo Disco - The Lost Legends Vol. 8
Used drive : PLEXTOR CD-ROM PX-54TA Adapter: 1 ID: 1
Read mode : Secure
Utilize accurate stream : Yes
Defeat audio cache : Yes
Make use of C2 pointers : No
Read offset correction : 12
Overread into Lead-In and Lead-Out : No
Fill up missing offset samples with silence : Yes
Delete leading and trailing silent blocks : No
Null samples used in CRC calculations : Yes
Used interface : Native Win32 interface for Win NT & 2000
Gap handling : Appended to previous track
Used output format : User Defined Encoder
Selected bitrate : 1024 kBit/s
Quality : High
Add ID3 tag : No
Command line compressor : C:\Program Files (x86)\Exact Audio Copy\Flac\flac-1.3.2-win\flac-1.3.2-win\win64\flac.exe
Additional command line options : -V -6 -T "COMMENT=ripped by Krevetka1972 special for СПАМ -T "ARTIST=%artist%" -T "TITLE=%title%" -T "ALBUM=%albumtitle%" -T "DATE=%year%" -T "TRACKNUMBER=%tracknr%" -T "GENRE=%genre%" -T "ALBUMARTIST=%albuminterpret%" %source% -o Юst%
TOC of the extracted CD
Track | Start | Length | Start sector | End sector
---------------------------------------------------------
1 | 0:00.00 | 6:14.43 | 0 | 28092
2 | 6:14.43 | 5:46.10 | 28093 | 54052
3 | 12:00.53 | 5:00.35 | 54053 | 76587
4 | 17:01.13 | 5:17.60 | 76588 | 100422
5 | 22:18.73 | 6:40.59 | 100423 | 130481
6 | 28:59.57 | 5:38.29 | 130482 | 155860
7 | 34:38.11 | 7:00.40 | 155861 | 187400
8 | 41:38.51 | 5:30.15 | 187401 | 212165
9 | 47:08.66 | 6:58.36 | 212166 | 243551
10 | 54:07.27 | 5:49.43 | 243552 | 269769
11 | 59:56.70 | 7:15.71 | 269770 | 302465
12 | 67:12.66 | 5:36.07 | 302466 | 327672
13 | 72:48.73 | 6:26.33 | 327673 | 356655
Track 1
Filename G:\Italo Disco - The Lost Legends\Various - 2017 - Italo Disco - The Lost Legends Vol. 8 (Disco Magic Melody # DMM CD 08 I)\01. M. Claude - Rain Dance.wav
Pre-gap length 0:00:02.00
Peak level 70.2 %
Extraction speed 4.3 X
Track quality 100.0 %
Test CRC 3D408EE8
Copy CRC 3D408EE8
Track not present in AccurateRip database
Copy OK
Track 2
Filename G:\Italo Disco - The Lost Legends\Various - 2017 - Italo Disco - The Lost Legends Vol. 8 (Disco Magic Melody # DMM CD 08 I)\02. Happen D.j. - Don't Waste Your Time.wav
Pre-gap length 0:00:02.00
Peak level 96.9 %
Extraction speed 4.8 X
Track quality 100.0 %
Test CRC 1ECC85B3
Copy CRC 1ECC85B3
Track not present in AccurateRip database
Copy OK
Track 3
Filename G:\Italo Disco - The Lost Legends\Various - 2017 - Italo Disco - The Lost Legends Vol. 8 (Disco Magic Melody # DMM CD 08 I)\03. Vinicio - Dance You And Me.wav
Pre-gap length 0:00:02.00
Peak level 78.6 %
Extraction speed 4.7 X
Track quality 99.9 %
Test CRC 95681D8B
Copy CRC 95681D8B
Track not present in AccurateRip database
Copy OK
Track 4
Filename G:\Italo Disco - The Lost Legends\Various - 2017 - Italo Disco - The Lost Legends Vol. 8 (Disco Magic Melody # DMM CD 08 I)\04. Lucio David - Close To Me.wav
Pre-gap length 0:00:02.00
Peak level 75.7 %
Extraction speed 5.7 X
Track quality 100.0 %
Test CRC EB2000DA
Copy CRC EB2000DA
Track not present in AccurateRip database
Copy OK
Track 5
Filename G:\Italo Disco - The Lost Legends\Various - 2017 - Italo Disco - The Lost Legends Vol. 8 (Disco Magic Melody # DMM CD 08 I)\05. Magic Sound - To Haldin.wav
Pre-gap length 0:00:02.00
Peak level 93.9 %
Extraction speed 6.2 X
Track quality 100.0 %
Test CRC 4F0B81A1
Copy CRC 4F0B81A1
Track not present in AccurateRip database
Copy OK
Track 6
Filename G:\Italo Disco - The Lost Legends\Various - 2017 - Italo Disco - The Lost Legends Vol. 8 (Disco Magic Melody # DMM CD 08 I)\06. Kevin Johnson - Video Night.wav
Pre-gap length 0:00:02.00
Peak level 87.4 %
Extraction speed 6.5 X
Track quality 100.0 %
Test CRC F630A561
Copy CRC F630A561
Track not present in AccurateRip database
Copy OK
Track 7
Filename G:\Italo Disco - The Lost Legends\Various - 2017 - Italo Disco - The Lost Legends Vol. 8 (Disco Magic Melody # DMM CD 08 I)\07. Sensitive - Driving.wav
Pre-gap length 0:00:02.00
Peak level 76.3 %
Extraction speed 7.0 X
Track quality 100.0 %
Test CRC 24B62F42
Copy CRC 24B62F42
Track not present in AccurateRip database
Copy OK
Track 8
Filename G:\Italo Disco - The Lost Legends\Various - 2017 - Italo Disco - The Lost Legends Vol. 8 (Disco Magic Melody # DMM CD 08 I)\08. New Glory - Love Is In Your Eyes.wav
Pre-gap length 0:00:02.00
Peak level 78.9 %
Extraction speed 7.2 X
Track quality 100.0 %
Test CRC 0A893C7F
Copy CRC 0A893C7F
Track not present in AccurateRip database
Copy OK
Track 9
Filename G:\Italo Disco - The Lost Legends\Various - 2017 - Italo Disco - The Lost Legends Vol. 8 (Disco Magic Melody # DMM CD 08 I)\09. Steve Darracq - Keep Crying.wav
Pre-gap length 0:00:02.00
Peak level 76.9 %
Extraction speed 7.7 X
Track quality 100.0 %
Test CRC 18DCB4CF
Copy CRC 18DCB4CF
Track not present in AccurateRip database
Copy OK
Track 10
Filename G:\Italo Disco - The Lost Legends\Various - 2017 - Italo Disco - The Lost Legends Vol. 8 (Disco Magic Melody # DMM CD 08 I)\10. Phil Grant - Hey Girl.wav
Pre-gap length 0:00:02.00
Peak level 98.1 %
Extraction speed 7.2 X
Track quality 99.9 %
Test CRC 21938842
Copy CRC 21938842
Track not present in AccurateRip database
Copy OK
Track 11
Filename G:\Italo Disco - The Lost Legends\Various - 2017 - Italo Disco - The Lost Legends Vol. 8 (Disco Magic Melody # DMM CD 08 I)\11. Giak - lnside You.wav
Pre-gap length 0:00:02.00
Peak level 76.8 %
Extraction speed 8.3 X
Track quality 100.0 %
Test CRC B9C9003B
Copy CRC B9C9003B
Track not present in AccurateRip database
Copy OK
Track 12
Filename G:\Italo Disco - The Lost Legends\Various - 2017 - Italo Disco - The Lost Legends Vol. 8 (Disco Magic Melody # DMM CD 08 I)\12. Larry Day - Fashion Girl.wav
Pre-gap length 0:00:02.00
Peak level 80.6 %
Extraction speed 8.4 X
Track quality 100.0 %
Test CRC 65D0A590
Copy CRC 65D0A590
Track not present in AccurateRip database
Copy OK
Track 13
Filename G:\Italo Disco - The Lost Legends\Various - 2017 - Italo Disco - The Lost Legends Vol. 8 (Disco Magic Melody # DMM CD 08 I)\13. Disasters - Oh My God, This Sound....wav
Pre-gap length 0:00:02.00
Peak level 95.3 %
Extraction speed 8.1 X
Track quality 99.9 %
Test CRC 0E3478B0
Copy CRC 0E3478B0
Track not present in AccurateRip database
Copy OK
None of the tracks are present in the AccurateRip database
No errors occurred
End of status report
---- AcoustID Plugin V1.2.0
Total fingerprints: 13
---- CUETools DB Plugin V2.1.6
[CTDB TOCID: SJZbqDE1wFKcGe3vl6iUO6ZKFGg-] disk not present in database
Submit result: SJZbqDE1wFKcGe3vl6iUO6ZKFGg- has been uploaded
==== Log checksum C56A7AA33B867F84B3C871A971E172A1BA32953D3A44E7500914D997B844990B ====
 REM GENRE Italo-Disco
REM DATE 2017
REM DISCID 9A12930D
REM COMMENT "ExactAudioCopy v1.3"
PERFORMER "Various"
TITLE "Italo Disco - The Lost Legends Vol. 8"
REM COMPOSER ""
FILE "01. M. Claude - Rain Dance.wav" WAVE
TRACK 01 AUDIO
TITLE "Rain Dance"
PERFORMER "M. Claude"
REM COMPOSER ""
INDEX 01 00:00:00
TRACK 02 AUDIO
TITLE "Don't Waste Your Time"
PERFORMER "Happen D.j."
REM COMPOSER ""
INDEX 00 06:12:43
FILE "02. Happen D.j. - Don't Waste Your Time.wav" WAVE
INDEX 01 00:00:00
TRACK 03 AUDIO
TITLE "Dance You And Me"
PERFORMER "Vinicio"
REM COMPOSER ""
INDEX 00 05:44:10
FILE "03. Vinicio - Dance You And Me.wav" WAVE
INDEX 01 00:00:00
TRACK 04 AUDIO
TITLE "Close To Me"
PERFORMER "Lucio David"
REM COMPOSER ""
INDEX 00 04:58:35
FILE "04. Lucio David - Close To Me.wav" WAVE
INDEX 01 00:00:00
TRACK 05 AUDIO
TITLE "To Haldin"
PERFORMER "Magic Sound"
REM COMPOSER ""
INDEX 00 05:15:60
FILE "05. Magic Sound - To Haldin.wav" WAVE
INDEX 01 00:00:00
TRACK 06 AUDIO
TITLE "Video Night"
PERFORMER "Kevin Johnson"
REM COMPOSER ""
INDEX 00 06:38:59
FILE "06. Kevin Johnson - Video Night.wav" WAVE
INDEX 01 00:00:00
TRACK 07 AUDIO
TITLE "Driving"
PERFORMER "Sensitive"
REM COMPOSER ""
INDEX 00 05:36:29
FILE "07. Sensitive - Driving.wav" WAVE
INDEX 01 00:00:00
TRACK 08 AUDIO
TITLE "Love Is In Your Eyes"
PERFORMER "New Glory"
REM COMPOSER ""
INDEX 00 06:58:40
FILE "08. New Glory - Love Is In Your Eyes.wav" WAVE
INDEX 01 00:00:00
TRACK 09 AUDIO
TITLE "Keep Crying"
PERFORMER "Steve Darracq"
REM COMPOSER ""
INDEX 00 05:28:15
FILE "09. Steve Darracq - Keep Crying.wav" WAVE
INDEX 01 00:00:00
TRACK 10 AUDIO
TITLE "Hey Girl"
PERFORMER "Phil Grant"
REM COMPOSER ""
INDEX 00 06:56:36
FILE "10. Phil Grant - Hey Girl.wav" WAVE
INDEX 01 00:00:00
TRACK 11 AUDIO
TITLE "lnside You"
PERFORMER "Giak"
REM COMPOSER ""
INDEX 00 05:47:43
FILE "11. Giak - lnside You.wav" WAVE
INDEX 01 00:00:00
TRACK 12 AUDIO
TITLE "Fashion Girl"
PERFORMER "Larry Day"
REM COMPOSER ""
INDEX 00 07:13:71
FILE "12. Larry Day - Fashion Girl.wav" WAVE
INDEX 01 00:00:00
TRACK 13 AUDIO
TITLE "Oh My God, This Sound..."
PERFORMER "Disasters"
REM COMPOSER ""
INDEX 00 05:34:07
FILE "13. Disasters - Oh My God, This Sound....wav" WAVE
INDEX 01 00:00:00
01 Tom Dollar - Love Is Something (06:45)
02 C'Zar - I Remember (Look Me Baby) (06:29)
03 Steve Martin - Roxide (06:30)
04 Laura Angel - lf You Want (04:30)
05 Sweet Jam - Living In Saigon (06:25)
06 Alan Clayn - Joint (07:20)
07 Implantation - Choose Your Lover (Shoo-Wha Shoo-Wha) (06:23)
08 Humphrey - Devil Love (Passion In The Dark) (06:19)
09 Depeches Cover - Nodisco (05:37)
10 Bianca Neve - Broken Heart (05:42)
11 Cyklon B - Il Carnevale Della Disillusione (05:20)
12 Ago - Electric Cucaracha (06:20)
13 David Wolker - Tell Me What You Want To Know (04:52)
Лог создания рипа
 Exact Audio Copy V1.3 from 2. September 2016
EAC extraction logfile from 17. December 2017, 13:14
Various / Italo Disco - The Lost Legends Vol. 9
Used drive : PLEXTOR CD-ROM PX-54TA Adapter: 1 ID: 1
Read mode : Secure
Utilize accurate stream : Yes
Defeat audio cache : Yes
Make use of C2 pointers : No
Read offset correction : 12
Overread into Lead-In and Lead-Out : No
Fill up missing offset samples with silence : Yes
Delete leading and trailing silent blocks : No
Null samples used in CRC calculations : Yes
Used interface : Native Win32 interface for Win NT & 2000
Gap handling : Appended to previous track
Used output format : User Defined Encoder
Selected bitrate : 1024 kBit/s
Quality : High
Add ID3 tag : No
Command line compressor : C:\Program Files (x86)\Exact Audio Copy\Flac\flac-1.3.2-win\flac-1.3.2-win\win64\flac.exe
Additional command line options : -V -6 -T "COMMENT=ripped by Krevetka1972 special for СПАМ -T "ARTIST=%artist%" -T "TITLE=%title%" -T "ALBUM=%albumtitle%" -T "DATE=%year%" -T "TRACKNUMBER=%tracknr%" -T "GENRE=%genre%" -T "ALBUMARTIST=%albuminterpret%" %source% -o Юst%
TOC of the extracted CD
Track | Start | Length | Start sector | End sector
---------------------------------------------------------
1 | 0:00.00 | 6:44.20 | 0 | 30319
2 | 6:44.20 | 6:28.50 | 30320 | 59469
3 | 13:12.70 | 6:29.55 | 59470 | 88699
4 | 19:42.50 | 4:29.38 | 88700 | 108912
5 | 24:12.13 | 6:24.26 | 108913 | 137738
6 | 30:36.39 | 7:19.37 | 137739 | 170700
7 | 37:56.01 | 6:22.20 | 170701 | 199370
8 | 44:18.21 | 6:18.73 | 199371 | 227793
9 | 50:37.19 | 5:37.00 | 227794 | 253068
10 | 56:14.19 | 5:41.70 | 253069 | 278713
11 | 61:56.14 | 5:19.27 | 278714 | 302665
12 | 67:15.41 | 6:19.34 | 302666 | 331124
13 | 73:35.00 | 4:51.26 | 331125 | 352975
Track 1
Filename G:\Various - 2017 - Italo Disco - The Lost Legends Vol. 9 (Disco Magic Melody # DMM CD 09 I)\01. Tom Dollar - Love Is Something.wav
Pre-gap length 0:00:02.00
Peak level 75.9 %
Extraction speed 4.4 X
Track quality 100.0 %
Test CRC 3C584EF4
Copy CRC 3C584EF4
Track not present in AccurateRip database
Copy OK
Track 2
Filename G:\Various - 2017 - Italo Disco - The Lost Legends Vol. 9 (Disco Magic Melody # DMM CD 09 I)\02. C'Zar - I Remember (Look Me Baby).wav
Pre-gap length 0:00:02.00
Peak level 85.9 %
Extraction speed 5.0 X
Track quality 100.0 %
Test CRC CA5601B5
Copy CRC CA5601B5
Track not present in AccurateRip database
Copy OK
Track 3
Filename G:\Various - 2017 - Italo Disco - The Lost Legends Vol. 9 (Disco Magic Melody # DMM CD 09 I)\03. Steve Martin - Roxide.wav
Pre-gap length 0:00:02.00
Peak level 83.9 %
Extraction speed 5.1 X
Track quality 99.9 %
Test CRC 0FDC7580
Copy CRC 0FDC7580
Track not present in AccurateRip database
Copy OK
Track 4
Filename G:\Various - 2017 - Italo Disco - The Lost Legends Vol. 9 (Disco Magic Melody # DMM CD 09 I)\04. Laura Angel - lf You Want.wav
Pre-gap length 0:00:02.00
Peak level 95.7 %
Extraction speed 5.6 X
Track quality 100.0 %
Test CRC 703E66F9
Copy CRC 703E66F9
Track not present in AccurateRip database
Copy OK
Track 5
Filename G:\Various - 2017 - Italo Disco - The Lost Legends Vol. 9 (Disco Magic Melody # DMM CD 09 I)\05. Sweet Jam - Living In Saigon.wav
Pre-gap length 0:00:02.00
Peak level 84.7 %
Extraction speed 6.3 X
Track quality 100.0 %
Test CRC 36DAC63B
Copy CRC 36DAC63B
Track not present in AccurateRip database
Copy OK
Track 6
Filename G:\Various - 2017 - Italo Disco - The Lost Legends Vol. 9 (Disco Magic Melody # DMM CD 09 I)\06. Alan Clayn - Joint.wav
Pre-gap length 0:00:02.00
Peak level 91.0 %
Extraction speed 6.8 X
Track quality 100.0 %
Test CRC D3CC3D73
Copy CRC D3CC3D73
Track not present in AccurateRip database
Copy OK
Track 7
Filename G:\Various - 2017 - Italo Disco - The Lost Legends Vol. 9 (Disco Magic Melody # DMM CD 09 I)\07. Implantation - Choose Your Lover (Shoo-Wha Shoo-Wha).wav
Pre-gap length 0:00:02.00
Peak level 94.3 %
Extraction speed 7.1 X
Track quality 100.0 %
Test CRC E7451EC4
Copy CRC E7451EC4
Track not present in AccurateRip database
Copy OK
Track 8
Filename G:\Various - 2017 - Italo Disco - The Lost Legends Vol. 9 (Disco Magic Melody # DMM CD 09 I)\08. Humphrey - Devil Love (Passion In The Dark).wav
Pre-gap length 0:00:02.00
Peak level 77.0 %
Extraction speed 7.4 X
Track quality 100.0 %
Test CRC 3BCC563A
Copy CRC 3BCC563A
Track not present in AccurateRip database
Copy OK
Track 9
Filename G:\Various - 2017 - Italo Disco - The Lost Legends Vol. 9 (Disco Magic Melody # DMM CD 09 I)\09. Depeches Cover - Nodisco.wav
Pre-gap length 0:00:02.00
Peak level 91.6 %
Extraction speed 7.0 X
Track quality 99.9 %
Test CRC 1F4983E6
Copy CRC 1F4983E6
Track not present in AccurateRip database
Copy OK
Track 10
Filename G:\Various - 2017 - Italo Disco - The Lost Legends Vol. 9 (Disco Magic Melody # DMM CD 09 I)\10. Bianca Neve - Broken Heart.wav
Pre-gap length 0:00:02.00
Peak level 96.4 %
Extraction speed 7.2 X
Track quality 99.9 %
Test CRC 1C004DC4
Copy CRC 1C004DC4
Track not present in AccurateRip database
Copy OK
Track 11
Filename G:\Various - 2017 - Italo Disco - The Lost Legends Vol. 9 (Disco Magic Melody # DMM CD 09 I)\11. Cyklon B - Il Carnevale Della Disillusione.wav
Pre-gap length 0:00:02.00
Peak level 87.2 %
Extraction speed 7.4 X
Track quality 99.9 %
Test CRC 2E9D9C49
Copy CRC 2E9D9C49
Track not present in AccurateRip database
Copy OK
Track 12
Filename G:\Various - 2017 - Italo Disco - The Lost Legends Vol. 9 (Disco Magic Melody # DMM CD 09 I)\12. Ago - Electric Cucaracha.wav
Pre-gap length 0:00:02.00
Peak level 90.7 %
Extraction speed 7.8 X
Track quality 99.9 %
Test CRC 80147296
Copy CRC 80147296
Track not present in AccurateRip database
Copy OK
Track 13
Filename G:\Various - 2017 - Italo Disco - The Lost Legends Vol. 9 (Disco Magic Melody # DMM CD 09 I)\13. David Wolker - Tell Me What You Want To Know.wav
Pre-gap length 0:00:02.00
Peak level 70.4 %
Extraction speed 8.5 X
Track quality 100.0 %
Test CRC 1740D5B0
Copy CRC 1740D5B0
Track not present in AccurateRip database
Copy OK
None of the tracks are present in the AccurateRip database
No errors occurred
End of status report
---- AcoustID Plugin V1.2.0
Total fingerprints: 13
---- CUETools DB Plugin V2.1.6
[CTDB TOCID: Nvkrkg0tnsH0bIBceWuLRZlQI94-] found
Submit result: already submitted
Track | CTDB Status
1 | (1/1) Accurately ripped
2 | (1/1) Accurately ripped
3 | (1/1) Accurately ripped
4 | (1/1) Accurately ripped
5 | (1/1) Accurately ripped
6 | (1/1) Accurately ripped
7 | (1/1) Accurately ripped
8 | (1/1) Accurately ripped
9 | (1/1) Accurately ripped
10 | (1/1) Accurately ripped
11 | (1/1) Accurately ripped
12 | (1/1) Accurately ripped
13 | (1/1) Accurately ripped
==== Log checksum 5F9CD1F180A4A9BE1C890E3C6B1A1E1146CB740C636709B872022242F9B26550 ====
Содержание индексной карты (.CUE)
 REM GENRE Italo-Disco
REM DATE 2017
REM DISCID C412620D
REM COMMENT "ExactAudioCopy v1.3"
PERFORMER "Various"
TITLE "Italo Disco - The Lost Legends Vol. 9"
REM COMPOSER ""
FILE "01. Tom Dollar - Love Is Something.wav" WAVE
TRACK 01 AUDIO
TITLE "Love Is Something"
PERFORMER "Tom Dollar"
REM COMPOSER ""
INDEX 01 00:00:00
TRACK 02 AUDIO
TITLE "I Remember (Look Me Baby)"
PERFORMER "C'Zar"
REM COMPOSER ""
INDEX 00 06:42:20
FILE "02. C'Zar - I Remember (Look Me Baby).wav" WAVE
INDEX 01 00:00:00
TRACK 03 AUDIO
TITLE "Roxide"
PERFORMER "Steve Martin"
REM COMPOSER ""
INDEX 00 06:26:50
FILE "03. Steve Martin - Roxide.wav" WAVE
INDEX 01 00:00:00
TRACK 04 AUDIO
TITLE "lf You Want"
PERFORMER "Laura Angel"
REM COMPOSER ""
INDEX 00 06:27:55
FILE "04. Laura Angel - lf You Want.wav" WAVE
INDEX 01 00:00:00
TRACK 05 AUDIO
TITLE "Living In Saigon"
PERFORMER "Sweet Jam"
REM COMPOSER ""
INDEX 00 04:27:38
FILE "05. Sweet Jam - Living In Saigon.wav" WAVE
INDEX 01 00:00:00
TRACK 06 AUDIO
TITLE "Joint"
PERFORMER "Alan Clayn"
REM COMPOSER ""
INDEX 00 06:22:26
FILE "06. Alan Clayn - Joint.wav" WAVE
INDEX 01 00:00:00
TRACK 07 AUDIO
TITLE "Choose Your Lover (Shoo-Wha Shoo-Wha)"
PERFORMER "Implantation"
REM COMPOSER ""
INDEX 00 07:17:37
FILE "07. Implantation - Choose Your Lover (Shoo-Wha Shoo-Wha).wav" WAVE
INDEX 01 00:00:00
TRACK 08 AUDIO
TITLE "Devil Love (Passion In The Dark)"
PERFORMER "Humphrey"
REM COMPOSER ""
INDEX 00 06:20:20
FILE "08. Humphrey - Devil Love (Passion In The Dark).wav" WAVE
INDEX 01 00:00:00
TRACK 09 AUDIO
TITLE "Nodisco"
PERFORMER "Depeches Cover"
REM COMPOSER ""
INDEX 00 06:16:73
FILE "09. Depeches Cover - Nodisco.wav" WAVE
INDEX 01 00:00:00
TRACK 10 AUDIO
TITLE "Broken Heart"
PERFORMER "Bianca Neve"
REM COMPOSER ""
INDEX 00 05:35:00
FILE "10. Bianca Neve - Broken Heart.wav" WAVE
INDEX 01 00:00:00
TRACK 11 AUDIO
TITLE "Il Carnevale Della Disillusione"
PERFORMER "Cyklon B"
REM COMPOSER ""
INDEX 00 05:39:70
FILE "11. Cyklon B - Il Carnevale Della Disillusione.wav" WAVE
INDEX 01 00:00:00
TRACK 12 AUDIO
TITLE "Electric Cucaracha"
PERFORMER "Ago"
REM COMPOSER ""
INDEX 00 05:17:27
FILE "12. Ago - Electric Cucaracha.wav" WAVE
INDEX 01 00:00:00
TRACK 13 AUDIO
TITLE "Tell Me What You Want To Know"
PERFORMER "David Wolker"
REM COMPOSER ""
INDEX 00 06:17:34
FILE "13. David Wolker - Tell Me What You Want To Know.wav" WAVE
INDEX 01 00:00:00
 Exact Audio Copy V1.3 from 2. September 2016
EAC extraction logfile from 17. December 2017, 13:14
Various / Italo Disco - The Lost Legends Vol. 9
Used drive : PLEXTOR CD-ROM PX-54TA Adapter: 1 ID: 1
Read mode : Secure
Utilize accurate stream : Yes
Defeat audio cache : Yes
Make use of C2 pointers : No
Read offset correction : 12
Overread into Lead-In and Lead-Out : No
Fill up missing offset samples with silence : Yes
Delete leading and trailing silent blocks : No
Null samples used in CRC calculations : Yes
Used interface : Native Win32 interface for Win NT & 2000
Gap handling : Appended to previous track
Used output format : User Defined Encoder
Selected bitrate : 1024 kBit/s
Quality : High
Add ID3 tag : No
Command line compressor : C:\Program Files (x86)\Exact Audio Copy\Flac\flac-1.3.2-win\flac-1.3.2-win\win64\flac.exe
Additional command line options : -V -6 -T "COMMENT=ripped by Krevetka1972 special for СПАМ -T "ARTIST=%artist%" -T "TITLE=%title%" -T "ALBUM=%albumtitle%" -T "DATE=%year%" -T "TRACKNUMBER=%tracknr%" -T "GENRE=%genre%" -T "ALBUMARTIST=%albuminterpret%" %source% -o Юst%
TOC of the extracted CD
Track | Start | Length | Start sector | End sector
---------------------------------------------------------
1 | 0:00.00 | 6:44.20 | 0 | 30319
2 | 6:44.20 | 6:28.50 | 30320 | 59469
3 | 13:12.70 | 6:29.55 | 59470 | 88699
4 | 19:42.50 | 4:29.38 | 88700 | 108912
5 | 24:12.13 | 6:24.26 | 108913 | 137738
6 | 30:36.39 | 7:19.37 | 137739 | 170700
7 | 37:56.01 | 6:22.20 | 170701 | 199370
8 | 44:18.21 | 6:18.73 | 199371 | 227793
9 | 50:37.19 | 5:37.00 | 227794 | 253068
10 | 56:14.19 | 5:41.70 | 253069 | 278713
11 | 61:56.14 | 5:19.27 | 278714 | 302665
12 | 67:15.41 | 6:19.34 | 302666 | 331124
13 | 73:35.00 | 4:51.26 | 331125 | 352975
Track 1
Filename G:\Various - 2017 - Italo Disco - The Lost Legends Vol. 9 (Disco Magic Melody # DMM CD 09 I)\01. Tom Dollar - Love Is Something.wav
Pre-gap length 0:00:02.00
Peak level 75.9 %
Extraction speed 4.4 X
Track quality 100.0 %
Test CRC 3C584EF4
Copy CRC 3C584EF4
Track not present in AccurateRip database
Copy OK
Track 2
Filename G:\Various - 2017 - Italo Disco - The Lost Legends Vol. 9 (Disco Magic Melody # DMM CD 09 I)\02. C'Zar - I Remember (Look Me Baby).wav
Pre-gap length 0:00:02.00
Peak level 85.9 %
Extraction speed 5.0 X
Track quality 100.0 %
Test CRC CA5601B5
Copy CRC CA5601B5
Track not present in AccurateRip database
Copy OK
Track 3
Filename G:\Various - 2017 - Italo Disco - The Lost Legends Vol. 9 (Disco Magic Melody # DMM CD 09 I)\03. Steve Martin - Roxide.wav
Pre-gap length 0:00:02.00
Peak level 83.9 %
Extraction speed 5.1 X
Track quality 99.9 %
Test CRC 0FDC7580
Copy CRC 0FDC7580
Track not present in AccurateRip database
Copy OK
Track 4
Filename G:\Various - 2017 - Italo Disco - The Lost Legends Vol. 9 (Disco Magic Melody # DMM CD 09 I)\04. Laura Angel - lf You Want.wav
Pre-gap length 0:00:02.00
Peak level 95.7 %
Extraction speed 5.6 X
Track quality 100.0 %
Test CRC 703E66F9
Copy CRC 703E66F9
Track not present in AccurateRip database
Copy OK
Track 5
Filename G:\Various - 2017 - Italo Disco - The Lost Legends Vol. 9 (Disco Magic Melody # DMM CD 09 I)\05. Sweet Jam - Living In Saigon.wav
Pre-gap length 0:00:02.00
Peak level 84.7 %
Extraction speed 6.3 X
Track quality 100.0 %
Test CRC 36DAC63B
Copy CRC 36DAC63B
Track not present in AccurateRip database
Copy OK
Track 6
Filename G:\Various - 2017 - Italo Disco - The Lost Legends Vol. 9 (Disco Magic Melody # DMM CD 09 I)\06. Alan Clayn - Joint.wav
Pre-gap length 0:00:02.00
Peak level 91.0 %
Extraction speed 6.8 X
Track quality 100.0 %
Test CRC D3CC3D73
Copy CRC D3CC3D73
Track not present in AccurateRip database
Copy OK
Track 7
Filename G:\Various - 2017 - Italo Disco - The Lost Legends Vol. 9 (Disco Magic Melody # DMM CD 09 I)\07. Implantation - Choose Your Lover (Shoo-Wha Shoo-Wha).wav
Pre-gap length 0:00:02.00
Peak level 94.3 %
Extraction speed 7.1 X
Track quality 100.0 %
Test CRC E7451EC4
Copy CRC E7451EC4
Track not present in AccurateRip database
Copy OK
Track 8
Filename G:\Various - 2017 - Italo Disco - The Lost Legends Vol. 9 (Disco Magic Melody # DMM CD 09 I)\08. Humphrey - Devil Love (Passion In The Dark).wav
Pre-gap length 0:00:02.00
Peak level 77.0 %
Extraction speed 7.4 X
Track quality 100.0 %
Test CRC 3BCC563A
Copy CRC 3BCC563A
Track not present in AccurateRip database
Copy OK
Track 9
Filename G:\Various - 2017 - Italo Disco - The Lost Legends Vol. 9 (Disco Magic Melody # DMM CD 09 I)\09. Depeches Cover - Nodisco.wav
Pre-gap length 0:00:02.00
Peak level 91.6 %
Extraction speed 7.0 X
Track quality 99.9 %
Test CRC 1F4983E6
Copy CRC 1F4983E6
Track not present in AccurateRip database
Copy OK
Track 10
Filename G:\Various - 2017 - Italo Disco - The Lost Legends Vol. 9 (Disco Magic Melody # DMM CD 09 I)\10. Bianca Neve - Broken Heart.wav
Pre-gap length 0:00:02.00
Peak level 96.4 %
Extraction speed 7.2 X
Track quality 99.9 %
Test CRC 1C004DC4
Copy CRC 1C004DC4
Track not present in AccurateRip database
Copy OK
Track 11
Filename G:\Various - 2017 - Italo Disco - The Lost Legends Vol. 9 (Disco Magic Melody # DMM CD 09 I)\11. Cyklon B - Il Carnevale Della Disillusione.wav
Pre-gap length 0:00:02.00
Peak level 87.2 %
Extraction speed 7.4 X
Track quality 99.9 %
Test CRC 2E9D9C49
Copy CRC 2E9D9C49
Track not present in AccurateRip database
Copy OK
Track 12
Filename G:\Various - 2017 - Italo Disco - The Lost Legends Vol. 9 (Disco Magic Melody # DMM CD 09 I)\12. Ago - Electric Cucaracha.wav
Pre-gap length 0:00:02.00
Peak level 90.7 %
Extraction speed 7.8 X
Track quality 99.9 %
Test CRC 80147296
Copy CRC 80147296
Track not present in AccurateRip database
Copy OK
Track 13
Filename G:\Various - 2017 - Italo Disco - The Lost Legends Vol. 9 (Disco Magic Melody # DMM CD 09 I)\13. David Wolker - Tell Me What You Want To Know.wav
Pre-gap length 0:00:02.00
Peak level 70.4 %
Extraction speed 8.5 X
Track quality 100.0 %
Test CRC 1740D5B0
Copy CRC 1740D5B0
Track not present in AccurateRip database
Copy OK
None of the tracks are present in the AccurateRip database
No errors occurred
End of status report
---- AcoustID Plugin V1.2.0
Total fingerprints: 13
---- CUETools DB Plugin V2.1.6
[CTDB TOCID: Nvkrkg0tnsH0bIBceWuLRZlQI94-] found
Submit result: already submitted
Track | CTDB Status
1 | (1/1) Accurately ripped
2 | (1/1) Accurately ripped
3 | (1/1) Accurately ripped
4 | (1/1) Accurately ripped
5 | (1/1) Accurately ripped
6 | (1/1) Accurately ripped
7 | (1/1) Accurately ripped
8 | (1/1) Accurately ripped
9 | (1/1) Accurately ripped
10 | (1/1) Accurately ripped
11 | (1/1) Accurately ripped
12 | (1/1) Accurately ripped
13 | (1/1) Accurately ripped
==== Log checksum 5F9CD1F180A4A9BE1C890E3C6B1A1E1146CB740C636709B872022242F9B26550 ====
 REM GENRE Italo-Disco
REM DATE 2017
REM DISCID C412620D
REM COMMENT "ExactAudioCopy v1.3"
PERFORMER "Various"
TITLE "Italo Disco - The Lost Legends Vol. 9"
REM COMPOSER ""
FILE "01. Tom Dollar - Love Is Something.wav" WAVE
TRACK 01 AUDIO
TITLE "Love Is Something"
PERFORMER "Tom Dollar"
REM COMPOSER ""
INDEX 01 00:00:00
TRACK 02 AUDIO
TITLE "I Remember (Look Me Baby)"
PERFORMER "C'Zar"
REM COMPOSER ""
INDEX 00 06:42:20
FILE "02. C'Zar - I Remember (Look Me Baby).wav" WAVE
INDEX 01 00:00:00
TRACK 03 AUDIO
TITLE "Roxide"
PERFORMER "Steve Martin"
REM COMPOSER ""
INDEX 00 06:26:50
FILE "03. Steve Martin - Roxide.wav" WAVE
INDEX 01 00:00:00
TRACK 04 AUDIO
TITLE "lf You Want"
PERFORMER "Laura Angel"
REM COMPOSER ""
INDEX 00 06:27:55
FILE "04. Laura Angel - lf You Want.wav" WAVE
INDEX 01 00:00:00
TRACK 05 AUDIO
TITLE "Living In Saigon"
PERFORMER "Sweet Jam"
REM COMPOSER ""
INDEX 00 04:27:38
FILE "05. Sweet Jam - Living In Saigon.wav" WAVE
INDEX 01 00:00:00
TRACK 06 AUDIO
TITLE "Joint"
PERFORMER "Alan Clayn"
REM COMPOSER ""
INDEX 00 06:22:26
FILE "06. Alan Clayn - Joint.wav" WAVE
INDEX 01 00:00:00
TRACK 07 AUDIO
TITLE "Choose Your Lover (Shoo-Wha Shoo-Wha)"
PERFORMER "Implantation"
REM COMPOSER ""
INDEX 00 07:17:37
FILE "07. Implantation - Choose Your Lover (Shoo-Wha Shoo-Wha).wav" WAVE
INDEX 01 00:00:00
TRACK 08 AUDIO
TITLE "Devil Love (Passion In The Dark)"
PERFORMER "Humphrey"
REM COMPOSER ""
INDEX 00 06:20:20
FILE "08. Humphrey - Devil Love (Passion In The Dark).wav" WAVE
INDEX 01 00:00:00
TRACK 09 AUDIO
TITLE "Nodisco"
PERFORMER "Depeches Cover"
REM COMPOSER ""
INDEX 00 06:16:73
FILE "09. Depeches Cover - Nodisco.wav" WAVE
INDEX 01 00:00:00
TRACK 10 AUDIO
TITLE "Broken Heart"
PERFORMER "Bianca Neve"
REM COMPOSER ""
INDEX 00 05:35:00
FILE "10. Bianca Neve - Broken Heart.wav" WAVE
INDEX 01 00:00:00
TRACK 11 AUDIO
TITLE "Il Carnevale Della Disillusione"
PERFORMER "Cyklon B"
REM COMPOSER ""
INDEX 00 05:39:70
FILE "11. Cyklon B - Il Carnevale Della Disillusione.wav" WAVE
INDEX 01 00:00:00
TRACK 12 AUDIO
TITLE "Electric Cucaracha"
PERFORMER "Ago"
REM COMPOSER ""
INDEX 00 05:17:27
FILE "12. Ago - Electric Cucaracha.wav" WAVE
INDEX 01 00:00:00
TRACK 13 AUDIO
TITLE "Tell Me What You Want To Know"
PERFORMER "David Wolker"
REM COMPOSER ""
INDEX 00 06:17:34
FILE "13. David Wolker - Tell Me What You Want To Know.wav" WAVE
INDEX 01 00:00:00
01. Tony Moore D.J. - Tonight (7:06)
02. Paciscopi - Love's Harmony (6:39)
03. David Gray - I Wanna Fly (Only For DJ) (5:32)
04. F & M - Te Gusta? (5:26)
05. Moser Moser - El Temporal (A Rain Version) (4:39)
06. D.J.F.T. Band - Music & War (5:22)
07. Manhattan Project - That's Impossible (7:11)
08. Tobi Ash - S.O.S. (D.J. Version) (4:52)
09. Oberhaim - On The Road (5:01)
10. Jean Louis Levant - Say (4:59)
11. Phil Sun - Baby Goodbye (6:50)
12. Wol Vo - Forever (3:43)
13. Magenes - Back To Singapore (5:58)
14. Lama - Nineteen Ninety Three (5:01)
Лог создания рипа
 Exact Audio Copy V1.3 from 2. September 2016
EAC extraction logfile from 16. December 2017, 22:18
Various / Italo Disco - The Lost Legends Vol. 10
Used drive : PLEXTOR CD-ROM PX-54TA Adapter: 1 ID: 1
Read mode : Secure
Utilize accurate stream : Yes
Defeat audio cache : Yes
Make use of C2 pointers : No
Read offset correction : 12
Overread into Lead-In and Lead-Out : No
Fill up missing offset samples with silence : Yes
Delete leading and trailing silent blocks : No
Null samples used in CRC calculations : Yes
Used interface : Native Win32 interface for Win NT & 2000
Gap handling : Appended to previous track
Used output format : User Defined Encoder
Selected bitrate : 1024 kBit/s
Quality : High
Add ID3 tag : No
Command line compressor : C:\Program Files (x86)\Exact Audio Copy\Flac\flac-1.3.2-win\flac-1.3.2-win\win64\flac.exe
Additional command line options : -V -6 -T "COMMENT=ripped by Krevetka1972 special for СПАМ -T "ARTIST=%artist%" -T "TITLE=%title%" -T "ALBUM=%albumtitle%" -T "DATE=%year%" -T "TRACKNUMBER=%tracknr%" -T "GENRE=%genre%" -T "ALBUMARTIST=%albuminterpret%" %source% -o Юst%
TOC of the extracted CD
Track | Start | Length | Start sector | End sector
---------------------------------------------------------
1 | 0:00.00 | 7:06.26 | 0 | 31975
2 | 7:06.26 | 6:39.69 | 31976 | 61969
3 | 13:46.20 | 5:32.68 | 61970 | 86937
4 | 19:19.13 | 5:26.14 | 86938 | 111401
5 | 24:45.27 | 4:39.00 | 111402 | 132326
6 | 29:24.27 | 5:22.52 | 132327 | 156528
7 | 34:47.04 | 7:11.37 | 156529 | 188890
8 | 41:58.41 | 4:52.16 | 188891 | 210806
9 | 46:50.57 | 5:01.36 | 210807 | 233417
10 | 51:52.18 | 4:59.24 | 233418 | 255866
11 | 56:51.42 | 6:50.57 | 255867 | 286673
12 | 63:42.24 | 3:43.25 | 286674 | 303423
13 | 67:25.49 | 5:58.16 | 303424 | 330289
14 | 73:23.65 | 5:01.14 | 330290 | 352878
Track 1
Filename G:\Italo Disco - The Lost Legends\Various - 2017 - Italo Disco - The Lost Legends Vol. 10 (Disco Magic Melody # DMM CD 10 I)\01. Tony Moore D.J. - Tonight.wav
Pre-gap length 0:00:02.00
Peak level 75.2 %
Extraction speed 4.4 X
Track quality 100.0 %
Test CRC 1B1FC14E
Copy CRC 1B1FC14E
Track not present in AccurateRip database
Copy OK
Track 2
Filename G:\Italo Disco - The Lost Legends\Various - 2017 - Italo Disco - The Lost Legends Vol. 10 (Disco Magic Melody # DMM CD 10 I)\02. Paciscopi - Love's Harmony.wav
Pre-gap length 0:00:02.00
Peak level 80.0 %
Extraction speed 5.1 X
Track quality 100.0 %
Test CRC 6B40A1FD
Copy CRC 6B40A1FD
Track not present in AccurateRip database
Copy OK
Track 3
Filename G:\Italo Disco - The Lost Legends\Various - 2017 - Italo Disco - The Lost Legends Vol. 10 (Disco Magic Melody # DMM CD 10 I)\03. David Gray - I Wanna Fly (Only For DJ).wav
Pre-gap length 0:00:02.00
Peak level 83.6 %
Extraction speed 5.4 X
Track quality 100.0 %
Test CRC E09A961C
Copy CRC E09A961C
Track not present in AccurateRip database
Copy OK
Track 4
Filename G:\Italo Disco - The Lost Legends\Various - 2017 - Italo Disco - The Lost Legends Vol. 10 (Disco Magic Melody # DMM CD 10 I)\04. F & M - Te Gusta.wav
Pre-gap length 0:00:02.00
Peak level 79.2 %
Extraction speed 5.8 X
Track quality 100.0 %
Test CRC 503207B1
Copy CRC 503207B1
Track not present in AccurateRip database
Copy OK
Track 5
Filename G:\Italo Disco - The Lost Legends\Various - 2017 - Italo Disco - The Lost Legends Vol. 10 (Disco Magic Melody # DMM CD 10 I)\05. Moser Moser - El Temporal (A Rain Version).wav
Pre-gap length 0:00:02.00
Peak level 87.4 %
Extraction speed 6.1 X
Track quality 100.0 %
Test CRC 422EFF5F
Copy CRC 422EFF5F
Track not present in AccurateRip database
Copy OK
Track 6
Filename G:\Italo Disco - The Lost Legends\Various - 2017 - Italo Disco - The Lost Legends Vol. 10 (Disco Magic Melody # DMM CD 10 I)\06. D.J.F.T. Band - Music & War.wav
Pre-gap length 0:00:02.00
Peak level 95.8 %
Extraction speed 5.9 X
Track quality 99.9 %
Test CRC 4A48F202
Copy CRC 4A48F202
Track not present in AccurateRip database
Copy OK
Track 7
Filename G:\Italo Disco - The Lost Legends\Various - 2017 - Italo Disco - The Lost Legends Vol. 10 (Disco Magic Melody # DMM CD 10 I)\07. Manhattan Project - That's Impossible.wav
Pre-gap length 0:00:02.00
Peak level 92.9 %
Extraction speed 7.0 X
Track quality 100.0 %
Test CRC 07FB1F48
Copy CRC 07FB1F48
Track not present in AccurateRip database
Copy OK
Track 8
Filename G:\Italo Disco - The Lost Legends\Various - 2017 - Italo Disco - The Lost Legends Vol. 10 (Disco Magic Melody # DMM CD 10 I)\08. Tobi Ash - S.O.S. (D.J. Version).wav
Pre-gap length 0:00:02.00
Peak level 97.9 %
Extraction speed 7.1 X
Track quality 100.0 %
Test CRC DC21724D
Copy CRC DC21724D
Track not present in AccurateRip database
Copy OK
Track 9
Filename G:\Italo Disco - The Lost Legends\Various - 2017 - Italo Disco - The Lost Legends Vol. 10 (Disco Magic Melody # DMM CD 10 I)\09. Oberhaim - On The Road.wav
Pre-gap length 0:00:02.00
Peak level 75.7 %
Extraction speed 7.3 X
Track quality 100.0 %
Test CRC FAF258E3
Copy CRC FAF258E3
Track not present in AccurateRip database
Copy OK
Track 10
Filename G:\Italo Disco - The Lost Legends\Various - 2017 - Italo Disco - The Lost Legends Vol. 10 (Disco Magic Melody # DMM CD 10 I)\10. Jean Louis Levant - Say.wav
Pre-gap length 0:00:02.00
Peak level 93.5 %
Extraction speed 7.5 X
Track quality 100.0 %
Test CRC 468094D1
Copy CRC 468094D1
Track not present in AccurateRip database
Copy OK
Track 11
Filename G:\Italo Disco - The Lost Legends\Various - 2017 - Italo Disco - The Lost Legends Vol. 10 (Disco Magic Melody # DMM CD 10 I)\11. Phil Sun - Baby Goodbye.wav
Pre-gap length 0:00:02.00
Peak level 78.7 %
Extraction speed 8.1 X
Track quality 100.0 %
Test CRC DC8737C6
Copy CRC DC8737C6
Track not present in AccurateRip database
Copy OK
Track 12
Filename G:\Italo Disco - The Lost Legends\Various - 2017 - Italo Disco - The Lost Legends Vol. 10 (Disco Magic Melody # DMM CD 10 I)\12. Wol Vo - Forever.wav
Pre-gap length 0:00:02.00
Peak level 94.1 %
Extraction speed 7.8 X
Track quality 100.0 %
Test CRC 470F4B6B
Copy CRC 470F4B6B
Track not present in AccurateRip database
Copy OK
Track 13
Filename G:\Italo Disco - The Lost Legends\Various - 2017 - Italo Disco - The Lost Legends Vol. 10 (Disco Magic Melody # DMM CD 10 I)\13. Magenes - Back To Singapore.wav
Pre-gap length 0:00:02.00
Peak level 71.5 %
Extraction speed 7.8 X
Track quality 99.9 %
Test CRC 808DBD99
Copy CRC 808DBD99
Track not present in AccurateRip database
Copy OK
Track 14
Filename G:\Italo Disco - The Lost Legends\Various - 2017 - Italo Disco - The Lost Legends Vol. 10 (Disco Magic Melody # DMM CD 10 I)\14. Lama - Nineteen Ninety Three.wav
Pre-gap length 0:00:02.00
Peak level 76.8 %
Extraction speed 8.5 X
Track quality 100.0 %
Test CRC 5E0A7A0C
Copy CRC 5E0A7A0C
Track not present in AccurateRip database
Copy OK
None of the tracks are present in the AccurateRip database
No errors occurred
End of status report
---- AcoustID Plugin V1.2.0
Total fingerprints: 14
---- CUETools DB Plugin V2.1.6
[CTDB TOCID: Q6.0dydttwag3_coKn1ZoU_cfS4-] disk not present in database
Submit result: Q6.0dydttwag3_coKn1ZoU_cfS4- has been uploaded
==== Log checksum E1A8CB323877DA9CE8FC287D2B089EC013CC2373BB1DB875C265C8647CB2641A ====
Содержание индексной карты (.CUE)
 REM GENRE Italo-Disco
REM DATE 2017
REM DISCID BD12610E
REM COMMENT "ExactAudioCopy v1.3"
PERFORMER "Various"
TITLE "Italo Disco - The Lost Legends Vol. 10"
REM COMPOSER ""
FILE "01. Tony Moore D.J. - Tonight.wav" WAVE
TRACK 01 AUDIO
TITLE "Tonight"
PERFORMER "Tony Moore D.J."
REM COMPOSER ""
INDEX 01 00:00:00
TRACK 02 AUDIO
TITLE "Love's Harmony"
PERFORMER "Paciscopi"
REM COMPOSER ""
INDEX 00 07:04:26
FILE "02. Paciscopi - Love's Harmony.wav" WAVE
INDEX 01 00:00:00
TRACK 03 AUDIO
TITLE "I Wanna Fly (Only For DJ)"
PERFORMER "David Gray"
REM COMPOSER ""
INDEX 00 06:37:69
FILE "03. David Gray - I Wanna Fly (Only For DJ).wav" WAVE
INDEX 01 00:00:00
TRACK 04 AUDIO
TITLE "Te Gusta?"
PERFORMER "F & M"
REM COMPOSER ""
INDEX 00 05:30:68
FILE "04. F & M - Te Gusta.wav" WAVE
INDEX 01 00:00:00
TRACK 05 AUDIO
TITLE "El Temporal (A Rain Version)"
PERFORMER "Moser Moser"
REM COMPOSER ""
INDEX 00 05:24:14
FILE "05. Moser Moser - El Temporal (A Rain Version).wav" WAVE
INDEX 01 00:00:00
TRACK 06 AUDIO
TITLE "Music & War"
PERFORMER "D.J.F.T. Band"
REM COMPOSER ""
INDEX 00 04:37:00
FILE "06. D.J.F.T. Band - Music & War.wav" WAVE
INDEX 01 00:00:00
TRACK 07 AUDIO
TITLE "That's Impossible"
PERFORMER "Manhattan Project"
REM COMPOSER ""
INDEX 00 05:20:52
FILE "07. Manhattan Project - That's Impossible.wav" WAVE
INDEX 01 00:00:00
TRACK 08 AUDIO
TITLE "S.O.S. (D.J. Version)"
PERFORMER "Tobi Ash"
REM COMPOSER ""
INDEX 00 07:09:37
FILE "08. Tobi Ash - S.O.S. (D.J. Version).wav" WAVE
INDEX 01 00:00:00
TRACK 09 AUDIO
TITLE "On The Road"
PERFORMER "Oberhaim"
REM COMPOSER ""
INDEX 00 04:50:16
FILE "09. Oberhaim - On The Road.wav" WAVE
INDEX 01 00:00:00
TRACK 10 AUDIO
TITLE "Say"
PERFORMER "Jean Louis Levant"
REM COMPOSER ""
INDEX 00 04:59:36
FILE "10. Jean Louis Levant - Say.wav" WAVE
INDEX 01 00:00:00
TRACK 11 AUDIO
TITLE "Baby Goodbye"
PERFORMER "Phil Sun"
REM COMPOSER ""
INDEX 00 04:57:24
FILE "11. Phil Sun - Baby Goodbye.wav" WAVE
INDEX 01 00:00:00
TRACK 12 AUDIO
TITLE "Forever"
PERFORMER "Wol Vo"
REM COMPOSER ""
INDEX 00 06:48:57
FILE "12. Wol Vo - Forever.wav" WAVE
INDEX 01 00:00:00
TRACK 13 AUDIO
TITLE "Back To Singapore"
PERFORMER "Magenes"
REM COMPOSER ""
INDEX 00 03:41:25
FILE "13. Magenes - Back To Singapore.wav" WAVE
INDEX 01 00:00:00
TRACK 14 AUDIO
TITLE "Nineteen Ninety Three"
PERFORMER "Lama"
REM COMPOSER ""
INDEX 00 05:56:16
FILE "14. Lama - Nineteen Ninety Three.wav" WAVE
INDEX 01 00:00:00
 Exact Audio Copy V1.3 from 2. September 2016
EAC extraction logfile from 16. December 2017, 22:18
Various / Italo Disco - The Lost Legends Vol. 10
Used drive : PLEXTOR CD-ROM PX-54TA Adapter: 1 ID: 1
Read mode : Secure
Utilize accurate stream : Yes
Defeat audio cache : Yes
Make use of C2 pointers : No
Read offset correction : 12
Overread into Lead-In and Lead-Out : No
Fill up missing offset samples with silence : Yes
Delete leading and trailing silent blocks : No
Null samples used in CRC calculations : Yes
Used interface : Native Win32 interface for Win NT & 2000
Gap handling : Appended to previous track
Used output format : User Defined Encoder
Selected bitrate : 1024 kBit/s
Quality : High
Add ID3 tag : No
Command line compressor : C:\Program Files (x86)\Exact Audio Copy\Flac\flac-1.3.2-win\flac-1.3.2-win\win64\flac.exe
Additional command line options : -V -6 -T "COMMENT=ripped by Krevetka1972 special for СПАМ -T "ARTIST=%artist%" -T "TITLE=%title%" -T "ALBUM=%albumtitle%" -T "DATE=%year%" -T "TRACKNUMBER=%tracknr%" -T "GENRE=%genre%" -T "ALBUMARTIST=%albuminterpret%" %source% -o Юst%
TOC of the extracted CD
Track | Start | Length | Start sector | End sector
---------------------------------------------------------
1 | 0:00.00 | 7:06.26 | 0 | 31975
2 | 7:06.26 | 6:39.69 | 31976 | 61969
3 | 13:46.20 | 5:32.68 | 61970 | 86937
4 | 19:19.13 | 5:26.14 | 86938 | 111401
5 | 24:45.27 | 4:39.00 | 111402 | 132326
6 | 29:24.27 | 5:22.52 | 132327 | 156528
7 | 34:47.04 | 7:11.37 | 156529 | 188890
8 | 41:58.41 | 4:52.16 | 188891 | 210806
9 | 46:50.57 | 5:01.36 | 210807 | 233417
10 | 51:52.18 | 4:59.24 | 233418 | 255866
11 | 56:51.42 | 6:50.57 | 255867 | 286673
12 | 63:42.24 | 3:43.25 | 286674 | 303423
13 | 67:25.49 | 5:58.16 | 303424 | 330289
14 | 73:23.65 | 5:01.14 | 330290 | 352878
Track 1
Filename G:\Italo Disco - The Lost Legends\Various - 2017 - Italo Disco - The Lost Legends Vol. 10 (Disco Magic Melody # DMM CD 10 I)\01. Tony Moore D.J. - Tonight.wav
Pre-gap length 0:00:02.00
Peak level 75.2 %
Extraction speed 4.4 X
Track quality 100.0 %
Test CRC 1B1FC14E
Copy CRC 1B1FC14E
Track not present in AccurateRip database
Copy OK
Track 2
Filename G:\Italo Disco - The Lost Legends\Various - 2017 - Italo Disco - The Lost Legends Vol. 10 (Disco Magic Melody # DMM CD 10 I)\02. Paciscopi - Love's Harmony.wav
Pre-gap length 0:00:02.00
Peak level 80.0 %
Extraction speed 5.1 X
Track quality 100.0 %
Test CRC 6B40A1FD
Copy CRC 6B40A1FD
Track not present in AccurateRip database
Copy OK
Track 3
Filename G:\Italo Disco - The Lost Legends\Various - 2017 - Italo Disco - The Lost Legends Vol. 10 (Disco Magic Melody # DMM CD 10 I)\03. David Gray - I Wanna Fly (Only For DJ).wav
Pre-gap length 0:00:02.00
Peak level 83.6 %
Extraction speed 5.4 X
Track quality 100.0 %
Test CRC E09A961C
Copy CRC E09A961C
Track not present in AccurateRip database
Copy OK
Track 4
Filename G:\Italo Disco - The Lost Legends\Various - 2017 - Italo Disco - The Lost Legends Vol. 10 (Disco Magic Melody # DMM CD 10 I)\04. F & M - Te Gusta.wav
Pre-gap length 0:00:02.00
Peak level 79.2 %
Extraction speed 5.8 X
Track quality 100.0 %
Test CRC 503207B1
Copy CRC 503207B1
Track not present in AccurateRip database
Copy OK
Track 5
Filename G:\Italo Disco - The Lost Legends\Various - 2017 - Italo Disco - The Lost Legends Vol. 10 (Disco Magic Melody # DMM CD 10 I)\05. Moser Moser - El Temporal (A Rain Version).wav
Pre-gap length 0:00:02.00
Peak level 87.4 %
Extraction speed 6.1 X
Track quality 100.0 %
Test CRC 422EFF5F
Copy CRC 422EFF5F
Track not present in AccurateRip database
Copy OK
Track 6
Filename G:\Italo Disco - The Lost Legends\Various - 2017 - Italo Disco - The Lost Legends Vol. 10 (Disco Magic Melody # DMM CD 10 I)\06. D.J.F.T. Band - Music & War.wav
Pre-gap length 0:00:02.00
Peak level 95.8 %
Extraction speed 5.9 X
Track quality 99.9 %
Test CRC 4A48F202
Copy CRC 4A48F202
Track not present in AccurateRip database
Copy OK
Track 7
Filename G:\Italo Disco - The Lost Legends\Various - 2017 - Italo Disco - The Lost Legends Vol. 10 (Disco Magic Melody # DMM CD 10 I)\07. Manhattan Project - That's Impossible.wav
Pre-gap length 0:00:02.00
Peak level 92.9 %
Extraction speed 7.0 X
Track quality 100.0 %
Test CRC 07FB1F48
Copy CRC 07FB1F48
Track not present in AccurateRip database
Copy OK
Track 8
Filename G:\Italo Disco - The Lost Legends\Various - 2017 - Italo Disco - The Lost Legends Vol. 10 (Disco Magic Melody # DMM CD 10 I)\08. Tobi Ash - S.O.S. (D.J. Version).wav
Pre-gap length 0:00:02.00
Peak level 97.9 %
Extraction speed 7.1 X
Track quality 100.0 %
Test CRC DC21724D
Copy CRC DC21724D
Track not present in AccurateRip database
Copy OK
Track 9
Filename G:\Italo Disco - The Lost Legends\Various - 2017 - Italo Disco - The Lost Legends Vol. 10 (Disco Magic Melody # DMM CD 10 I)\09. Oberhaim - On The Road.wav
Pre-gap length 0:00:02.00
Peak level 75.7 %
Extraction speed 7.3 X
Track quality 100.0 %
Test CRC FAF258E3
Copy CRC FAF258E3
Track not present in AccurateRip database
Copy OK
Track 10
Filename G:\Italo Disco - The Lost Legends\Various - 2017 - Italo Disco - The Lost Legends Vol. 10 (Disco Magic Melody # DMM CD 10 I)\10. Jean Louis Levant - Say.wav
Pre-gap length 0:00:02.00
Peak level 93.5 %
Extraction speed 7.5 X
Track quality 100.0 %
Test CRC 468094D1
Copy CRC 468094D1
Track not present in AccurateRip database
Copy OK
Track 11
Filename G:\Italo Disco - The Lost Legends\Various - 2017 - Italo Disco - The Lost Legends Vol. 10 (Disco Magic Melody # DMM CD 10 I)\11. Phil Sun - Baby Goodbye.wav
Pre-gap length 0:00:02.00
Peak level 78.7 %
Extraction speed 8.1 X
Track quality 100.0 %
Test CRC DC8737C6
Copy CRC DC8737C6
Track not present in AccurateRip database
Copy OK
Track 12
Filename G:\Italo Disco - The Lost Legends\Various - 2017 - Italo Disco - The Lost Legends Vol. 10 (Disco Magic Melody # DMM CD 10 I)\12. Wol Vo - Forever.wav
Pre-gap length 0:00:02.00
Peak level 94.1 %
Extraction speed 7.8 X
Track quality 100.0 %
Test CRC 470F4B6B
Copy CRC 470F4B6B
Track not present in AccurateRip database
Copy OK
Track 13
Filename G:\Italo Disco - The Lost Legends\Various - 2017 - Italo Disco - The Lost Legends Vol. 10 (Disco Magic Melody # DMM CD 10 I)\13. Magenes - Back To Singapore.wav
Pre-gap length 0:00:02.00
Peak level 71.5 %
Extraction speed 7.8 X
Track quality 99.9 %
Test CRC 808DBD99
Copy CRC 808DBD99
Track not present in AccurateRip database
Copy OK
Track 14
Filename G:\Italo Disco - The Lost Legends\Various - 2017 - Italo Disco - The Lost Legends Vol. 10 (Disco Magic Melody # DMM CD 10 I)\14. Lama - Nineteen Ninety Three.wav
Pre-gap length 0:00:02.00
Peak level 76.8 %
Extraction speed 8.5 X
Track quality 100.0 %
Test CRC 5E0A7A0C
Copy CRC 5E0A7A0C
Track not present in AccurateRip database
Copy OK
None of the tracks are present in the AccurateRip database
No errors occurred
End of status report
---- AcoustID Plugin V1.2.0
Total fingerprints: 14
---- CUETools DB Plugin V2.1.6
[CTDB TOCID: Q6.0dydttwag3_coKn1ZoU_cfS4-] disk not present in database
Submit result: Q6.0dydttwag3_coKn1ZoU_cfS4- has been uploaded
==== Log checksum E1A8CB323877DA9CE8FC287D2B089EC013CC2373BB1DB875C265C8647CB2641A ====
 REM GENRE Italo-Disco
REM DATE 2017
REM DISCID BD12610E
REM COMMENT "ExactAudioCopy v1.3"
PERFORMER "Various"
TITLE "Italo Disco - The Lost Legends Vol. 10"
REM COMPOSER ""
FILE "01. Tony Moore D.J. - Tonight.wav" WAVE
TRACK 01 AUDIO
TITLE "Tonight"
PERFORMER "Tony Moore D.J."
REM COMPOSER ""
INDEX 01 00:00:00
TRACK 02 AUDIO
TITLE "Love's Harmony"
PERFORMER "Paciscopi"
REM COMPOSER ""
INDEX 00 07:04:26
FILE "02. Paciscopi - Love's Harmony.wav" WAVE
INDEX 01 00:00:00
TRACK 03 AUDIO
TITLE "I Wanna Fly (Only For DJ)"
PERFORMER "David Gray"
REM COMPOSER ""
INDEX 00 06:37:69
FILE "03. David Gray - I Wanna Fly (Only For DJ).wav" WAVE
INDEX 01 00:00:00
TRACK 04 AUDIO
TITLE "Te Gusta?"
PERFORMER "F & M"
REM COMPOSER ""
INDEX 00 05:30:68
FILE "04. F & M - Te Gusta.wav" WAVE
INDEX 01 00:00:00
TRACK 05 AUDIO
TITLE "El Temporal (A Rain Version)"
PERFORMER "Moser Moser"
REM COMPOSER ""
INDEX 00 05:24:14
FILE "05. Moser Moser - El Temporal (A Rain Version).wav" WAVE
INDEX 01 00:00:00
TRACK 06 AUDIO
TITLE "Music & War"
PERFORMER "D.J.F.T. Band"
REM COMPOSER ""
INDEX 00 04:37:00
FILE "06. D.J.F.T. Band - Music & War.wav" WAVE
INDEX 01 00:00:00
TRACK 07 AUDIO
TITLE "That's Impossible"
PERFORMER "Manhattan Project"
REM COMPOSER ""
INDEX 00 05:20:52
FILE "07. Manhattan Project - That's Impossible.wav" WAVE
INDEX 01 00:00:00
TRACK 08 AUDIO
TITLE "S.O.S. (D.J. Version)"
PERFORMER "Tobi Ash"
REM COMPOSER ""
INDEX 00 07:09:37
FILE "08. Tobi Ash - S.O.S. (D.J. Version).wav" WAVE
INDEX 01 00:00:00
TRACK 09 AUDIO
TITLE "On The Road"
PERFORMER "Oberhaim"
REM COMPOSER ""
INDEX 00 04:50:16
FILE "09. Oberhaim - On The Road.wav" WAVE
INDEX 01 00:00:00
TRACK 10 AUDIO
TITLE "Say"
PERFORMER "Jean Louis Levant"
REM COMPOSER ""
INDEX 00 04:59:36
FILE "10. Jean Louis Levant - Say.wav" WAVE
INDEX 01 00:00:00
TRACK 11 AUDIO
TITLE "Baby Goodbye"
PERFORMER "Phil Sun"
REM COMPOSER ""
INDEX 00 04:57:24
FILE "11. Phil Sun - Baby Goodbye.wav" WAVE
INDEX 01 00:00:00
TRACK 12 AUDIO
TITLE "Forever"
PERFORMER "Wol Vo"
REM COMPOSER ""
INDEX 00 06:48:57
FILE "12. Wol Vo - Forever.wav" WAVE
INDEX 01 00:00:00
TRACK 13 AUDIO
TITLE "Back To Singapore"
PERFORMER "Magenes"
REM COMPOSER ""
INDEX 00 03:41:25
FILE "13. Magenes - Back To Singapore.wav" WAVE
INDEX 01 00:00:00
TRACK 14 AUDIO
TITLE "Nineteen Ninety Three"
PERFORMER "Lama"
REM COMPOSER ""
INDEX 00 05:56:16
FILE "14. Lama - Nineteen Ninety Three.wav" WAVE
INDEX 01 00:00:00

[2.65 GB] Скачать / Download