(Pop, Euro-Disco, Europop, Ballad) Pussycat - Best Of - 2000, FLAC (tracks+.cue), lossless - Скачать


Жанр: Pop, Euro-Disco, Europop, Ballad
Носитель: CD
Страна-производитель диска (релиза): Europe
Год издания: 2000
Издатель (лейбл): Disky
Номер по каталогу: SI 992292
Страна исполнителя (группы): Netherlands
Аудиокодек: FLAC (*.flac)
Тип рипа: tracks+.cue
Битрейт аудио: lossless
Продолжительность: 01:09:58
Источник (релизер): stas64
Наличие сканов в содержимом раздачи: да
.Треклист:
01. Mississippi.
02. Georgie.
03. Smile.
04. Mexicali Lane.
05. My Broken Souvenirs.
06. I'll Be Your Woman.
07. If You Ever Come to Amsterdam.
08. It's the Same Old Song.
09. Wet Day in September.
10. Hey Joe.
11. Daddy.
12. Let Freedom Range.
13. Doin' La Bamba.
14. Then the Music Stopped.
15. Une chambre pour la nuit.
16. Teenage Queenie.
17. Lovers of a Kind.
18. Chicano.
....

дискография, lossless, pop-music, музыка, альбом, soundtrack, песни, поп-музыка, download, скачать, mp3, pop, альбом, поп, трек, высокое качество, cd, композиции, торрент, torrent, бесплатно

 Exact Audio Copy V1.0 beta 3 from 29. August 2011
Отчёт EAC об извлечении, выполненном 28. августа 2015, 17:02
Pussycat / Best Of
Дисковод: _NEC DVD_RW ND-3551A Adapter: 6 ID: 0
Режим чтения : Достоверность
Использование точного потока : Да
Отключение кэша аудио : Да
Использование указателей C2 : Нет
Коррекция смещения при чтении : 48
Способность читать области Lead-in и Lead-out : Нет
Заполнение пропущенных сэмплов тишиной : Да
Удаление блоков с тишиной в начале и конце : Нет
При вычислениях CRC использовались нулевые сэмплы : Да
Интерфейс : Установленный внешний ASPI-интерфейс
Обработка зазоров : Добавлено к предыдущему треку
Выходной формат : Пользовательский кодировщик
Выбранный битрейт : 128 kBit/s
Качество : Высокий
Добавление ID3-тега : Нет
Утилита сжатия : C:\Program Files\Exact Audio Copy\FLAC\FLAC.EXE
Дополнительные параметры : -V -8 -T "Genre=%genre%" -T "Artist=%artist%" -T "Title=%title%" -T "Album=%albumtitle%" -T "Date=%year%" -T "Tracknumber=%tracknr%" -T "Comment=%comment%" %source%
TOC извлечённого CD
Трек | Старт | Длительность | Начальный сектор | Конечный сектор
---------------------------------------------------------------------
1 | 0:00.00 | 4:36.10 | 0 | 20709
2 | 4:36.10 | 2:31.10 | 20710 | 32044
3 | 7:07.20 | 3:52.53 | 32045 | 49497
4 | 10:59.73 | 3:12.33 | 49498 | 63930
5 | 14:12.31 | 3:54.60 | 63931 | 81540
6 | 18:07.16 | 4:42.58 | 81541 | 102748
7 | 22:49.74 | 4:44.36 | 102749 | 124084
8 | 27:34.35 | 3:32.56 | 124085 | 140040
9 | 31:07.16 | 3:37.39 | 140041 | 156354
10 | 34:44.55 | 3:47.21 | 156355 | 173400
11 | 38:32.01 | 3:48.35 | 173401 | 190535
12 | 42:20.36 | 3:08.11 | 190536 | 204646
13 | 45:28.47 | 5:12.23 | 204647 | 228069
14 | 50:40.70 | 4:43.11 | 228070 | 249305
15 | 55:24.06 | 3:45.32 | 249306 | 266212
16 | 59:09.38 | 3:31.43 | 266213 | 282080
17 | 62:41.06 | 2:56.10 | 282081 | 295290
18 | 65:37.16 | 4:20.49 | 295291 | 314839
Трек 1
Имя файла I:\MOI_RAZDACI\Pussycat\Pussyca_Best.Of_2000\01 Mississippi.wav
Длина предзазора 0:00:02.00
Пиковый уровень 94.1 %
Скорость извлечения 4.6 X
Качество трека 100.0 %
CRC теста EC931A03
CRC копии EC931A03
Точное извлечение (достоверность 2) [42C660B2] (AR v2)
Копирование... OK
Трек 2
Имя файла I:\MOI_RAZDACI\Pussycat\Pussyca_Best.Of_2000\02 Georgie.wav
Длина предзазора 0:00:01.57
Пиковый уровень 93.4 %
Скорость извлечения 4.6 X
Качество трека 100.0 %
CRC теста 642BC97A
CRC копии 642BC97A
Точное извлечение (достоверность 2) [ADB9403A] (AR v2)
Копирование... OK
Трек 3
Имя файла I:\MOI_RAZDACI\Pussycat\Pussyca_Best.Of_2000\03 Smile.wav
Длина предзазора 0:00:01.57
Пиковый уровень 93.1 %
Скорость извлечения 4.6 X
Качество трека 99.9 %
CRC теста 903A6F85
CRC копии 903A6F85
Точное извлечение (достоверность 2) [D2C774B6] (AR v2)
Копирование... OK
Трек 4
Имя файла I:\MOI_RAZDACI\Pussycat\Pussyca_Best.Of_2000\04 Mexicali Lane.wav
Длина предзазора 0:00:01.57
Пиковый уровень 94.3 %
Скорость извлечения 5.4 X
Качество трека 100.0 %
CRC теста BCF1CDC3
CRC копии BCF1CDC3
Точное извлечение (достоверность 2) [2977F162] (AR v2)
Копирование... OK
Трек 5
Имя файла I:\MOI_RAZDACI\Pussycat\Pussyca_Best.Of_2000\05 My Broken Souvenirs.wav
Длина предзазора 0:00:01.57
Пиковый уровень 90.3 %
Скорость извлечения 5.9 X
Качество трека 100.0 %
CRC теста 71674FE8
CRC копии 71674FE8
Точное извлечение (достоверность 2) [F9375F0C] (AR v2)
Копирование... OK
Трек 6
Имя файла I:\MOI_RAZDACI\Pussycat\Pussyca_Best.Of_2000\06 I'll Be Your Woman.wav
Длина предзазора 0:00:01.57
Пиковый уровень 93.3 %
Скорость извлечения 6.3 X
Качество трека 100.0 %
CRC теста A185CEF0
CRC копии A185CEF0
Точное извлечение (достоверность 2) [CF73FFB3] (AR v2)
Копирование... OK
Трек 7
Имя файла I:\MOI_RAZDACI\Pussycat\Pussyca_Best.Of_2000\07 If You Ever Come to Amsterdam.wav
Длина предзазора 0:00:01.57
Пиковый уровень 93.6 %
Скорость извлечения 6.7 X
Качество трека 100.0 %
CRC теста C756F860
CRC копии C756F860
Точное извлечение (достоверность 2) [08CEF4CB] (AR v2)
Копирование... OK
Трек 8
Имя файла I:\MOI_RAZDACI\Pussycat\Pussyca_Best.Of_2000\08 It's the Same Old Song.wav
Длина предзазора 0:00:01.57
Пиковый уровень 93.7 %
Скорость извлечения 6.8 X
Качество трека 100.0 %
CRC теста 906DF64A
CRC копии 906DF64A
Точное извлечение (достоверность 2) [A50E3A17] (AR v2)
Копирование... OK
Трек 9
Имя файла I:\MOI_RAZDACI\Pussycat\Pussyca_Best.Of_2000\09 Wet Day in September.wav
Длина предзазора 0:00:01.57
Пиковый уровень 93.9 %
Скорость извлечения 7.0 X
Качество трека 100.0 %
CRC теста A9825083
CRC копии A9825083
Точное извлечение (достоверность 2) [7EFA585B] (AR v2)
Копирование... OK
Трек 10
Имя файла I:\MOI_RAZDACI\Pussycat\Pussyca_Best.Of_2000\10 Hey Joe.wav
Длина предзазора 0:00:01.56
Пиковый уровень 93.8 %
Скорость извлечения 7.2 X
Качество трека 100.0 %
CRC теста 5F48B26E
CRC копии 5F48B26E
Точное извлечение (достоверность 2) [6C4D34F7] (AR v2)
Копирование... OK
Трек 11
Имя файла I:\MOI_RAZDACI\Pussycat\Pussyca_Best.Of_2000\11 Daddy.wav
Длина предзазора 0:00:01.57
Пиковый уровень 94.3 %
Скорость извлечения 7.4 X
Качество трека 100.0 %
CRC теста B64E387F
CRC копии B64E387F
Точное извлечение (достоверность 2) [6BC7B1FA] (AR v2)
Копирование... OK
Трек 12
Имя файла I:\MOI_RAZDACI\Pussycat\Pussyca_Best.Of_2000\12 Let Freedom Range.wav
Длина предзазора 0:00:01.58
Пиковый уровень 89.3 %
Скорость извлечения 7.3 X
Качество трека 100.0 %
CRC теста 5B83C73F
CRC копии 5B83C73F
Точное извлечение (достоверность 2) [4476B588] (AR v2)
Копирование... OK
Трек 13
Имя файла I:\MOI_RAZDACI\Pussycat\Pussyca_Best.Of_2000\13 Doin' La Bamba.wav
Длина предзазора 0:00:01.57
Пиковый уровень 94.1 %
Скорость извлечения 8.2 X
Качество трека 100.0 %
CRC теста 35F83138
CRC копии 35F83138
Точное извлечение (достоверность 2) [532E52C9] (AR v2)
Копирование... OK
Трек 14
Имя файла I:\MOI_RAZDACI\Pussycat\Pussyca_Best.Of_2000\14 Then the Music Stopped.wav
Длина предзазора 0:00:01.57
Пиковый уровень 83.5 %
Скорость извлечения 8.3 X
Качество трека 100.0 %
CRC теста 7C74D744
CRC копии 7C74D744
Точное извлечение (достоверность 2) [BB934575] (AR v2)
Копирование... OK
Трек 15
Имя файла I:\MOI_RAZDACI\Pussycat\Pussyca_Best.Of_2000\15 Une chambre pour la nuit.wav
Длина предзазора 0:00:01.57
Пиковый уровень 91.1 %
Скорость извлечения 7.2 X
Качество трека 99.9 %
CRC теста 8F1E27E8
CRC копии 8F1E27E8
Точное извлечение (достоверность 2) [A7AF7C09] (AR v2)
Копирование... OK
Трек 16
Имя файла I:\MOI_RAZDACI\Pussycat\Pussyca_Best.Of_2000\16 Teenage Queenie.wav
Длина предзазора 0:00:01.57
Пиковый уровень 92.9 %
Скорость извлечения 8.4 X
Качество трека 100.0 %
CRC теста 21CC21FA
CRC копии 21CC21FA
Точное извлечение (достоверность 2) [4781BB6E] (AR v2)
Копирование... OK
Трек 17
Имя файла I:\MOI_RAZDACI\Pussycat\Pussyca_Best.Of_2000\17 Lovers of a Kind.wav
Длина предзазора 0:00:01.57
Пиковый уровень 91.3 %
Скорость извлечения 8.2 X
Качество трека 100.0 %
CRC теста 1C2C6C34
CRC копии 1C2C6C34
Точное извлечение (достоверность 2) [13B8E00B] (AR v2)
Копирование... OK
Трек 18
Имя файла I:\MOI_RAZDACI\Pussycat\Pussyca_Best.Of_2000\18 Chicano.wav
Длина предзазора 0:00:01.57
Пиковый уровень 88.5 %
Скорость извлечения 9.2 X
Качество трека 100.0 %
CRC теста 0DD9242F
CRC копии 0DD9242F
Точное извлечение (достоверность 2) [7EB53AFC] (AR v2)
Копирование... OK
Все треки извлечены точно
Ошибок не произошло
Конец отчёта
==== Контрольная сумма отчёта E2A24FCC0F17AE5FC7EF8DDE5DD1192E95DB1858AE678A30C849597C604B38BF ====
 REM GENRE Pop
REM DATE 2000
REM DISCID 0C106512
REM COMMENT "ExactAudioCopy v1.0b3"
PERFORMER "Pussycat"
TITLE "Best Of"
FILE "01 Mississippi.wav" WAVE
TRACK 01 AUDIO
TITLE "Mississippi"
PERFORMER "Pussycat"
ISRC 000000000000
INDEX 01 00:00:00
TRACK 02 AUDIO
TITLE "Georgie"
PERFORMER "Pussycat"
ISRC 000000000000
INDEX 00 04:34:28
FILE "02 Georgie.wav" WAVE
INDEX 01 00:00:00
TRACK 03 AUDIO
TITLE "Smile"
PERFORMER "Pussycat"
ISRC 000000000000
INDEX 00 02:29:28
FILE "03 Smile.wav" WAVE
INDEX 01 00:00:00
TRACK 04 AUDIO
TITLE "Mexicali Lane"
PERFORMER "Pussycat"
ISRC 000000000000
INDEX 00 03:50:71
FILE "04 Mexicali Lane.wav" WAVE
INDEX 01 00:00:00
TRACK 05 AUDIO
TITLE "My Broken Souvenirs"
PERFORMER "Pussycat"
ISRC 000000000000
INDEX 00 03:10:51
FILE "05 My Broken Souvenirs.wav" WAVE
INDEX 01 00:00:00
TRACK 06 AUDIO
TITLE "I'll Be Your Woman"
PERFORMER "Pussycat"
ISRC 000000000000
INDEX 00 03:53:03
FILE "06 I'll Be Your Woman.wav" WAVE
INDEX 01 00:00:00
TRACK 07 AUDIO
TITLE "If You Ever Come to Amsterdam"
PERFORMER "Pussycat"
ISRC 000000000000
INDEX 00 04:41:01
FILE "07 If You Ever Come to Amsterdam.wav" WAVE
INDEX 01 00:00:00
TRACK 08 AUDIO
TITLE "It's the Same Old Song"
PERFORMER "Pussycat"
ISRC 000000000000
INDEX 00 04:42:54
FILE "08 It's the Same Old Song.wav" WAVE
INDEX 01 00:00:00
TRACK 09 AUDIO
TITLE "Wet Day in September"
PERFORMER "Pussycat"
ISRC 000000000000
INDEX 00 03:30:74
FILE "09 Wet Day in September.wav" WAVE
INDEX 01 00:00:00
TRACK 10 AUDIO
TITLE "Hey Joe"
PERFORMER "Pussycat"
ISRC 000000000000
INDEX 00 03:35:58
FILE "10 Hey Joe.wav" WAVE
INDEX 01 00:00:00
TRACK 11 AUDIO
TITLE "Daddy"
PERFORMER "Pussycat"
ISRC 000000000000
INDEX 00 03:45:39
FILE "11 Daddy.wav" WAVE
INDEX 01 00:00:00
TRACK 12 AUDIO
TITLE "Let Freedom Range"
PERFORMER "Pussycat"
ISRC 000000000000
INDEX 00 03:46:52
FILE "12 Let Freedom Range.wav" WAVE
INDEX 01 00:00:00
TRACK 13 AUDIO
TITLE "Doin' La Bamba"
PERFORMER "Pussycat"
ISRC 000000000000
INDEX 00 03:06:29
FILE "13 Doin' La Bamba.wav" WAVE
INDEX 01 00:00:00
TRACK 14 AUDIO
TITLE "Then the Music Stopped"
PERFORMER "Pussycat"
ISRC 000000000000
INDEX 00 05:10:41
FILE "14 Then the Music Stopped.wav" WAVE
INDEX 01 00:00:00
TRACK 15 AUDIO
TITLE "Une chambre pour la nuit"
PERFORMER "Pussycat"
ISRC 000000000000
INDEX 00 04:41:29
FILE "15 Une chambre pour la nuit.wav" WAVE
INDEX 01 00:00:00
TRACK 16 AUDIO
TITLE "Teenage Queenie"
PERFORMER "Pussycat"
ISRC 000000000000
INDEX 00 03:43:50
FILE "16 Teenage Queenie.wav" WAVE
INDEX 01 00:00:00
TRACK 17 AUDIO
TITLE "Lovers of a Kind"
PERFORMER "Pussycat"
ISRC 000000000000
INDEX 00 03:29:61
FILE "17 Lovers of a Kind.wav" WAVE
INDEX 01 00:00:00
TRACK 18 AUDIO
TITLE "Chicano"
PERFORMER "Pussycat"
ISRC 000000000000
INDEX 00 02:54:28
FILE "18 Chicano.wav" WAVE
INDEX 01 00:00:00
 -----------------------
DON'T MODIFY THIS FILE
-----------------------
PERFORMER: auCDtect Task Manager, ver. 1.5.1RC6 build 1.5.1.7
Copyright (c) 2008-2010 y-soft. All rights reserved
http://y-soft.org
ANALYZER: auCDtect: CD records authenticity detector, version 0.8.2
Copyright (c) 2004 Oleg Berngardt. All rights reserved.
Copyright (c) 2004 Alexander Djourik. All rights reserved.
FILE: 18 Chicano.flac
Size: 32241824 Hash: 1EACABEB47E976613613349915659A66 Accuracy: -m0
Conclusion: CDDA 100%
Signature: C25A4798A2FE1293F4EAB8F13D77F0B96A596D8B
FILE: 17 Lovers of a Kind.flac
Size: 20763153 Hash: 0AEA911105A81DB0E9B7D803B15E18C2 Accuracy: -m0
Conclusion: CDDA 100%
Signature: 79D79E5F72EDB2BC1B805CC169DD04785530C8CD
FILE: 16 Teenage Queenie.flac
Size: 24244496 Hash: C03D338689608D0374B05930ACB4A898 Accuracy: -m0
Conclusion: CDDA 100%
Signature: DF506A7DFA7C43AD9FC1CC11BBC81349476D3B2A
FILE: 15 Une chambre pour la nuit.flac
Size: 24576699 Hash: 223AC6C5E616753BE1AD201CEE48398B Accuracy: -m0
Conclusion: CDDA 100%
Signature: 1B515B4853ACD7AC051E8B82CFD92895EA449878
FILE: 14 Then the Music Stopped.flac
Size: 35776203 Hash: D318B01F75F31593A4BCF243D0778122 Accuracy: -m0
Conclusion: CDDA 100%
Signature: 2670D53D3203A64AACDAC1C3BF69963C06A43A72
FILE: 13 Doin' La Bamba.flac
Size: 37774565 Hash: 28034338A3E27702DD157AC852FFC8C9 Accuracy: -m0
Conclusion: CDDA 100%
Signature: 18406E38B6BE777BE772CB183EB81C2AF5AC6C81
FILE: 12 Let Freedom Range.flac
Size: 23590495 Hash: 4D9BFDC893EAEBE36F25E0A0DF0F0939 Accuracy: -m0
Conclusion: CDDA 100%
Signature: 99E8351293EEB08146D2EC86E160E9FB03CC34A8
FILE: 11 Daddy.flac
Size: 28041667 Hash: B6F57385BDDF3A7E44E61D8D2E9889CF Accuracy: -m0
Conclusion: CDDA 100%
Signature: E29E93B3D9040504F312E898D803579E61AF5ECA
FILE: 10 Hey Joe.flac
Size: 24491029 Hash: A28C99A7D43F70C7EBBB5C301D385051 Accuracy: -m0
Conclusion: CDDA 100%
Signature: DA9B685AD6F090837F9C5347A85F79F17561AD4B
FILE: 09 Wet Day in September.flac
Size: 24605950 Hash: A15A9DC5C9FD7F5340214171A01B0D75 Accuracy: -m0
Conclusion: CDDA 100%
Signature: 540DB159E97AE24CD06C6E2DE367174AE56A445D
FILE: 08 It's the Same Old Song.flac
Size: 24397242 Hash: EE046712A33744FA2F481180FE77A091 Accuracy: -m0
Conclusion: CDDA 100%
Signature: 9845E063F7F1925407EAE283EC335F5DB695E1A7
FILE: 07 If You Ever Come to Amsterdam.flac
Size: 32486750 Hash: 76A864B623299CEB97243A84DFD0170B Accuracy: -m0
Conclusion: CDDA 100%
Signature: 097451186D8ACDC9F40E60B7C2B3DF2EE33841B3
FILE: 06 I'll Be Your Woman.flac
Size: 26728299 Hash: D183DCE6636CF9574F5F7ECA05AEDA4F Accuracy: -m0
Conclusion: CDDA 100%
Signature: 18E064B1A481C8181547AB8F910DA3C3C5C99475
FILE: 05 My Broken Souvenirs.flac
Size: 25066756 Hash: F82C1A0888F8757E4F7E758E9AF9CDC1 Accuracy: -m0
Conclusion: CDDA 99%
Signature: FF9AB5D4CA9CB15282E0C6827176BB61C0208E79
FILE: 04 Mexicali Lane.flac
Size: 22526432 Hash: B669D889EF5DECF7D95C4FD1FA56357C Accuracy: -m0
Conclusion: CDDA 100%
Signature: 02913E91F0EA7BED2286E43DA3E7B9AAD8BBA20C
FILE: 03 Smile.flac
Size: 27648320 Hash: 901E7C18878E03DC0913EF8AD40DFA56 Accuracy: -m0
Conclusion: CDDA 100%
Signature: 968AFB1ACAEDB526F9BDF61D1BB81EE6B64C1454
FILE: 02 Georgie.flac
Size: 17281305 Hash: E813DA802597117713E3E51D55791428 Accuracy: -m0
Conclusion: CDDA 100%
Signature: 29D38998F4BBBADB0B34ACAA3B11593DBD85062C
FILE: 01 Mississippi.flac
Size: 32225250 Hash: C7F84359D484E816C226499767CD816F Accuracy: -m0
Conclusion: CDDA 100%
Signature: CCB5FE07F8B51B4D97A12F268073E1D9E96AA130



Rock music:
Прямые кликабельные ссылки на раздачи.
Direct clickable links to hand.




























Pop music:
Прямые кликабельные ссылки на раздачи.
Direct clickable links to hand.
































Other music including Electronic and Soundtracks:
Прямые кликабельные ссылки на раздачи.
Direct clickable links to hand.


























Прямые кликабельные ссылки на раздачи.
Direct clickable links to hand.




























Прямые кликабельные ссылки на раздачи.
Direct clickable links to hand.
































Прямые кликабельные ссылки на раздачи.
Direct clickable links to hand.


























[485.9 MB] Скачать / Download