(Pop) Laid Back - Good Vibes (The Very Best Of Laid Back) (2 CD) - 2008, FLAC (image+.cue), lossless - Скачать

Жанр: Pop
Год выпуска диска: 2008
Производитель диска: EU
Аудио кодек: FLAC
Тип рипа: image+.cue
Битрейт аудио: lossless
Продолжительность: 78:57 + 77:01
Трэклист:
Laid Back - Good Vibes - The Very Best Of - CD 01
01. Maybe I'm Crazy 03:18
02. Sunshine Reggae 04:17
03. High Society Girl 03:36
04. White Horse 03:56
05. Elevator Boy 04:56
06. One Life 03:20
07. I'm Hooked 02:58
08. It's A Shame 04:46
09. Bakerman 04:41
10. Highway Of Love 04:49
11. Bet It On You 04:13
12. I Can't Live Without Love 04:11
13. Groovie Train 02:48
14. Why Is Everybody In Such A Hurry 04:07
15. Key To Life 03:29
16. Feels Like Heaven 04:10
17. Beautiful Day 03:33
18. People 03:34
19. Happy Dreamer 04:26
20. So This Is X-mas 03:40Laid Back - Good Vibes - The Very Best Of - CD 02
01. Roger (Steve Mac Remix) 06:11
02. Sunshine Reggae (Extended Dub Version) 06:37
03. White Horse (U.S. Edit) 05:46
04. High Society Girl (Long Dub Version) 06:10
05. One Life (Shep Pettibone Velvet Spike Mix) 06:05
06. I'm Hooked (Shep Pettibone U.S. Dance Mix) 05:55
07. It's A Shame (M&M New York Mix) 07:38
08. Bakerman (Cutfather & Soulshock Remix) 05:45
09. Sunshine Reggae (Funkstar's Pool Party De Luxe Remix) 07:06
10. Beautiful Day (Banzai Republic vs Trentemøller) 07:35
11. People (Banzai Republic vs Trentemøller) 05:59
12. Happy Dreamer (D.J. Disse Happy Horse Mix) 06:08

soundtrack, дискография, высокое качество, pop, torrent, торрент, поп-музыка, альбом, композиции, pop-music, lossless, скачать, альбом, музыка, mp3, бесплатно, песни, поп, download, cd, трек

Exact Audio Copy V0.99 prebeta 4 from 23. January 2008
EAC Auslese-Logdatei vom 2. Januar 2009, 13:29
Laid Back / Good Vibes - The Very Best Of - CD 01
Benutztes Laufwerk : HL-DT-STDVD-ROM GDR-H30N Adapter: 0 ID: 1
Lesemodus : Sicher
Benutze Accurate Stream : Ja
Audio Puffer abgeschaltet : Ja
Benutze C2 Fehlerinformationen : Nein
Leseoffset Korrektur : 6
Überlesen in das Lead-In und Lead-Out : Nein
Fülle fehlende Offsetsample mit Stille auf : Ja
Lösche führende und nachfolgende stille Blöcke : Nein
Null Samples gehen in CRC Berechnungen ein : Ja
Benutzte Schnittstelle : Installierte externe ASPI Schnittstelle
Benutztes Ausgabeformat : Interne WAV Routinen
Sampleformat : 44.100 Hz; 16 Bit; Stereo
TOC der ausgelesenen CD
Track | Start | Länge | Startsektor | Endsektor
-------------------------------------------------------
1 | 0:00.00 | 3:18.44 | 0 | 14893
2 | 3:18.44 | 4:17.50 | 14894 | 34218
3 | 7:36.19 | 3:36.07 | 34219 | 50425
4 | 11:12.26 | 3:56.24 | 50426 | 68149
5 | 15:08.50 | 4:56.04 | 68150 | 90353
6 | 20:04.54 | 3:20.73 | 90354 | 105426
7 | 23:25.52 | 2:58.28 | 105427 | 118804
8 | 26:24.05 | 4:46.34 | 118805 | 140288
9 | 31:10.39 | 4:41.61 | 140289 | 161424
10 | 35:52.25 | 4:49.08 | 161425 | 183107
11 | 40:41.33 | 4:13.15 | 183108 | 202097
12 | 44:54.48 | 4:11.33 | 202098 | 220955
13 | 49:06.06 | 2:48.13 | 220956 | 233568
14 | 51:54.19 | 4:07.10 | 233569 | 252103
15 | 56:01.29 | 3:29.71 | 252104 | 267849
16 | 59:31.25 | 4:10.35 | 267850 | 286634
17 | 63:41.60 | 3:33.04 | 286635 | 302613
18 | 67:14.64 | 3:34.62 | 302614 | 318725
19 | 70:49.51 | 4:26.33 | 318726 | 338708
20 | 75:16.09 | 3:40.47 | 338709 | 355255
Bereichsstatus und Fehler
Gewählter Bereich
Dateiname C:\Dokumente und Einstellungen\Boris\Eigene Dateien\Laid Back - Good Vibes\Laid Back - Good Vibes - The Very Best Of - CD 01.wav
Spitzenpegel 100.0 %
Bereichsqualität 100.0 %
Test CRC 9E6BCD1D
Kopie CRC 9E6BCD1D
Kopie OK
Keine Fehler aufgetreten
AccurateRip Übersicht
Track 1 nicht in Datenbank enthalten
Track 2 nicht in Datenbank enthalten
Track 3 nicht in Datenbank enthalten
Track 4 nicht in Datenbank enthalten
Track 5 nicht in Datenbank enthalten
Track 6 nicht in Datenbank enthalten
Track 7 nicht in Datenbank enthalten
Track 8 nicht in Datenbank enthalten
Track 9 nicht in Datenbank enthalten
Track 10 nicht in Datenbank enthalten
Track 11 nicht in Datenbank enthalten
Track 12 nicht in Datenbank enthalten
Track 13 nicht in Datenbank enthalten
Track 14 nicht in Datenbank enthalten
Track 15 nicht in Datenbank enthalten
Track 16 nicht in Datenbank enthalten
Track 17 nicht in Datenbank enthalten
Track 18 nicht in Datenbank enthalten
Track 19 nicht in Datenbank enthalten
Track 20 nicht in Datenbank enthalten
Keiner der Tracks ist in der AccurateRip Datenbank vorhanden
Ende des Statusreports
Exact Audio Copy V0.99 prebeta 4 from 23. January 2008
EAC Auslese-Logdatei vom 2. Januar 2009, 13:45
Laid Back / Good Vibes - The Very Best Of - CD 02
Benutztes Laufwerk : HL-DT-STDVD-ROM GDR-H30N Adapter: 0 ID: 1
Lesemodus : Sicher
Benutze Accurate Stream : Ja
Audio Puffer abgeschaltet : Ja
Benutze C2 Fehlerinformationen : Nein
Leseoffset Korrektur : 6
Überlesen in das Lead-In und Lead-Out : Nein
Fülle fehlende Offsetsample mit Stille auf : Ja
Lösche führende und nachfolgende stille Blöcke : Nein
Null Samples gehen in CRC Berechnungen ein : Ja
Benutzte Schnittstelle : Installierte externe ASPI Schnittstelle
Benutztes Ausgabeformat : Interne WAV Routinen
Sampleformat : 44.100 Hz; 16 Bit; Stereo
TOC der ausgelesenen CD
Track | Start | Länge | Startsektor | Endsektor
-------------------------------------------------------
1 | 0:00.00 | 6:11.35 | 0 | 27859
2 | 6:11.35 | 6:37.40 | 27860 | 57674
3 | 12:49.00 | 5:46.74 | 57675 | 83698
4 | 18:35.74 | 6:10.29 | 83699 | 111477
5 | 24:46.28 | 6:05.10 | 111478 | 138862
6 | 30:51.38 | 5:55.44 | 138863 | 165531
7 | 36:47.07 | 7:38.49 | 165532 | 199930
8 | 44:25.56 | 5:45.00 | 199931 | 225805
9 | 50:10.56 | 7:06.64 | 225806 | 257819
10 | 57:17.45 | 7:35.50 | 257820 | 291994
11 | 64:53.20 | 5:59.50 | 291995 | 318969
12 | 70:52.70 | 6:08.27 | 318970 | 346596
Bereichsstatus und Fehler
Gewählter Bereich
Dateiname C:\Dokumente und Einstellungen\Boris\Eigene Dateien\Laid Back - Good Vibes\Laid Back - Good Vibes - The Very Best Of - CD 02.wav
Spitzenpegel 98.8 %
Bereichsqualität 100.0 %
Test CRC F23FF253
Kopie CRC F23FF253
Kopie OK
Keine Fehler aufgetreten
AccurateRip Übersicht
Track 1 nicht in Datenbank enthalten
Track 2 nicht in Datenbank enthalten
Track 3 nicht in Datenbank enthalten
Track 4 nicht in Datenbank enthalten
Track 5 nicht in Datenbank enthalten
Track 6 nicht in Datenbank enthalten
Track 7 nicht in Datenbank enthalten
Track 8 nicht in Datenbank enthalten
Track 9 nicht in Datenbank enthalten
Track 10 nicht in Datenbank enthalten
Track 11 nicht in Datenbank enthalten
Track 12 nicht in Datenbank enthalten
Keiner der Tracks ist in der AccurateRip Datenbank vorhanden
Ende des Statusreports

[1.15 GB] Скачать / Download