(Pop / Synth-pop) Koo Dé Tah - Koo Dé Tah - 1986, FLAC (tracks+.cue), lossless - Скачать

Жанр: Pop / Synth-pop
Страна-производитель диска: Australia
Год издания диска: 1986
Издатель (лейбл): Mercury
Номер по каталогу: 830 267-2
Аудиокодек: FLAC (*.flac)
Тип рипа: tracks+.cue
Битрейт аудио: lossless
Продолжительность: 00:37:22
Источник (релизер): What.cd (spurge)
Наличие сканов в содержимом раздачи: да (Discogs)

Треклист:
01 Too Young For Promises
02 Think Of Me
03 Missed You All Along
04 Over To You
05 Body Talk
06 Change My Ways
07 Meant To Be
08 Fun Girl
09 Drift Away (Don't Let It)
10 Into The Future
YouTube

lossless, дискография, soundtrack, download, torrent, трек, поп, композиции, скачать, cd, mp3, pop, поп-музыка, альбом, песни, альбом, pop-music, бесплатно, музыка, высокое качество, торрент

 EAC extraction logfile from 16. August 2006, 20:10 for CD
Koo De Tah / Koo De Tah
Used drive : HL-DT-STDVD-ROM GDR8163B Adapter: 0 ID: 0
Read mode : Secure with NO C2, accurate stream, disable cache
Read offset correction : 102
Overread into Lead-In and Lead-Out : No
Used output format : C:\Program Files\FLAC\flac.exe (User Defined Encoder)
128 kBit/s
Additional command line options : -V -8 -T "artist=%a" -T "title=%t" -T "album=%g" -T "date=%y" -T "tracknumber=%n" -T "genre=%m" %s
Other options :
Fill up missing offset samples with silence : Yes
Delete leading and trailing silent blocks : No
Native Win32 interface for Win NT & 2000
Track 1
Filename C:\TempMp3\Koo De Tah - Koo De Tah - 01 - Too young for promises.wav
Pre-gap length 0:00:02.42
Peak level 100.0 %
Track quality 99.9 %
Test CRC DC345DF3
Copy CRC DC345DF3
Copy OK
Track 2
Filename C:\TempMp3\Koo De Tah - Koo De Tah - 02 - Think of me.wav
Pre-gap length 0:00:01.33
Peak level 97.4 %
Track quality 100.0 %
Test CRC 89E6C830
Copy CRC 89E6C830
Copy OK
Track 3
Filename C:\TempMp3\Koo De Tah - Koo De Tah - 03 - Missed you all along.wav
Pre-gap length 0:00:01.73
Peak level 100.0 %
Track quality 100.0 %
Test CRC BEA00B89
Copy CRC BEA00B89
Copy OK
Track 4
Filename C:\TempMp3\Koo De Tah - Koo De Tah - 04 - Over to you.wav
Pre-gap length 0:00:00.77
Peak level 100.0 %
Track quality 100.0 %
Test CRC 011AC890
Copy CRC 011AC890
Copy OK
Track 5
Filename C:\TempMp3\Koo De Tah - Koo De Tah - 05 - Body talk.wav
Peak level 100.0 %
Track quality 100.0 %
Test CRC 725C9045
Copy CRC 725C9045
Copy OK
Track 6
Filename C:\TempMp3\Koo De Tah - Koo De Tah - 06 - Change my ways.wav
Pre-gap length 0:00:01.57
Peak level 100.0 %
Track quality 100.0 %
Test CRC B91382C0
Copy CRC B91382C0
Copy OK
Track 7
Filename C:\TempMp3\Koo De Tah - Koo De Tah - 07 - Meant to be.wav
Pre-gap length 0:00:01.53
Peak level 100.0 %
Track quality 100.0 %
Test CRC E54DED9A
Copy CRC E54DED9A
Copy OK
Track 8
Filename C:\TempMp3\Koo De Tah - Koo De Tah - 08 - Fun girl.wav
Pre-gap length 0:00:00.93
Peak level 100.0 %
Track quality 99.9 %
Test CRC 130F7689
Copy CRC 130F7689
Copy OK
Track 9
Filename C:\TempMp3\Koo De Tah - Koo De Tah - 09 - Drift away (don't let it).wav
Pre-gap length 0:00:00.16
Peak level 100.0 %
Track quality 100.0 %
Test CRC 2E647011
Copy CRC 2E647011
Copy OK
Track 10
Filename C:\TempMp3\Koo De Tah - Koo De Tah - 10 - Into the future.wav
Pre-gap length 0:00:00.26
Peak level 100.0 %
Track quality 100.0 %
Test CRC 3A5A2B40
Copy CRC 3A5A2B40
Copy OK
No errors occured
End of status report
 REM GENRE Pop
REM DATE 1985
REM DISCID 92093A0A
REM COMMENT "ExactAudioCopy v0.95b4"
PERFORMER "Koo De Tah"
TITLE "Koo De Tah"
FILE "Koo De Tah - Koo De Tah - 01 - Too young for promises.wav" WAVE
TRACK 01 AUDIO
TITLE "Too young for promises"
PERFORMER "Koo De Tah"
PREGAP 00:00:32
INDEX 01 00:00:00
TRACK 02 AUDIO
TITLE "Think of me"
PERFORMER "Koo De Tah"
INDEX 00 04:02:28
FILE "Koo De Tah - Koo De Tah - 02 - Think of me.wav" WAVE
INDEX 01 00:00:00
TRACK 03 AUDIO
TITLE "Missed you all along"
PERFORMER "Koo De Tah"
INDEX 00 03:53:47
FILE "Koo De Tah - Koo De Tah - 03 - Missed you all along.wav" WAVE
INDEX 01 00:00:00
TRACK 04 AUDIO
TITLE "Over to you"
PERFORMER "Koo De Tah"
INDEX 00 03:24:10
FILE "Koo De Tah - Koo De Tah - 04 - Over to you.wav" WAVE
INDEX 01 00:00:00
FILE "Koo De Tah - Koo De Tah - 05 - Body talk.wav" WAVE
TRACK 05 AUDIO
TITLE "Body talk"
PERFORMER "Koo De Tah"
INDEX 01 00:00:00
TRACK 06 AUDIO
TITLE "Change my ways"
PERFORMER "Koo De Tah"
INDEX 00 04:08:25
FILE "Koo De Tah - Koo De Tah - 06 - Change my ways.wav" WAVE
INDEX 01 00:00:00
TRACK 07 AUDIO
TITLE "Meant to be"
PERFORMER "Koo De Tah"
INDEX 00 03:48:37
FILE "Koo De Tah - Koo De Tah - 07 - Meant to be.wav" WAVE
INDEX 01 00:00:00
TRACK 08 AUDIO
TITLE "Fun girl"
PERFORMER "Koo De Tah"
INDEX 00 03:55:48
FILE "Koo De Tah - Koo De Tah - 08 - Fun girl.wav" WAVE
INDEX 01 00:00:00
TRACK 09 AUDIO
TITLE "Drift away (don't let it)"
PERFORMER "Koo De Tah"
INDEX 00 03:41:50
FILE "Koo De Tah - Koo De Tah - 09 - Drift away (don't let it).wav" WAVE
INDEX 01 00:00:00
TRACK 10 AUDIO
TITLE "Into the future"
PERFORMER "Koo De Tah"
INDEX 00 04:03:15
FILE "Koo De Tah - Koo De Tah - 10 - Into the future.wav" WAVE
INDEX 01 00:00:00

[273.7 MB] Скачать / Download