(Pop) VA - Star Hit, The best of 80s v.2 (Суперхиты 80-х) - 2011, FLAC (image+.cue), lossless - Скачать

Various Artists - Star Hit,The best of 80s v.2
(Суперхиты 80-х)
Жанр: Disco/Pop
Страна-производитель диска: Россия
Год издания диска: 2011
Издатель (лейбл): CD Land
Номер по каталогу: CDLREC 5922011 CD
Аудиокодек: FLAC (*.flac)
Тип рипа: image+.cue
Битрейт аудио: lossless
Продолжительность: 1:18:47
Источник (релизер): Собственный рип
Наличие сканов в содержимом раздачи: да

Диск из личной коллекции!
Рип снят в режиме Test&Copy + сканы обложек и диска 600 dpi !!!
Приятного Всем прослушивания!

поп, soundtrack, pop, высокое качество, дискография, поп-музыка, трек, альбом, mp3, скачать, торрент, lossless, бесплатно, pop-music, композиции, cd, музыка, download, песни, torrent, альбом

 01. Ottawan -- Hands Up (4:44)
02. Fancy -- Flames Of Love (4:02)
03. Mr. Zivago -- Little Russian (4:10)
04. Lian Ross -- Say You'll Never (6:40)
05. Mauro -- Buona Sera - Ciao Ciao (3:59)
06. Toto Cutugno -- L'italiano (4:01)
07. Joy -- Valerie (4:11)
08. Bisquit -- Zoo-Zoo (5:02)
09. Silent Circle -- Am Your Believer (3:33)
10. Mike Mareen -- Agent Of Liberty (4:26)
11. Pseudo Echo -- Funkytown (4:55)
12. New Baccara -- Fantasy Boy (3:42)
13. The Hurricanes -- Only One Night (4:33)
14. Chris Norman -- Midnight Lady (4:12)
15. Joy Peters -- One Night In Love (4:05)
16. Michael Bedford -- Tonight (3:30)
17. Radiorama -- Yeti (6:05)
18. Chilly -- Play Me A Classic Symphony (2:58)
 Exact Audio Copy V1.0 beta 1 from 15. November 2010
Отчёт EAC об извлечении, выполненном 28. июня 2011, 20:15
Various / Star Hit, The best of 80s v.2
Дисковод: ASUS DRW-1814BLT Adapter: 2 ID: 0
Режим чтения : Достоверность
Использование точного потока : Да
Отключение кэша аудио : Да
Использование указателей C2 : Нет
Коррекция смещения при чтении : 6
Способность читать области Lead-in и Lead-out : Нет
Заполнение пропущенных сэмплов тишиной : Да
Удаление блоков с тишиной в начале и конце : Нет
При вычислениях CRC использовались нулевые сэмплы : Да
Интерфейс : Встроенный Win32-интерфейс для Win NT/2000
Выходной формат : Внутренние WAV-операции
Формат сэмплов : 44.100 Гц; 16 бит; стерео
TOC извлечённого CD
Трек | Старт | Длительность | Начальный сектор | Конечный сектор
---------------------------------------------------------------------
1 | 0:00.00 | 4:44.01 | 0 | 21300
2 | 4:44.01 | 4:01.43 | 21301 | 39418
3 | 8:45.44 | 4:09.39 | 39419 | 58132
4 | 12:55.08 | 6:40.07 | 58133 | 88139
5 | 19:35.15 | 3:58.50 | 88140 | 106039
6 | 23:33.65 | 4:00.54 | 106040 | 124093
7 | 27:34.44 | 4:10.70 | 124094 | 142913
8 | 31:45.39 | 5:02.06 | 142914 | 165569
9 | 36:47.45 | 3:33.24 | 165570 | 181568
10 | 40:20.69 | 4:25.50 | 181569 | 201493
11 | 44:46.44 | 4:55.17 | 201494 | 223635
12 | 49:41.61 | 3:42.16 | 223636 | 240301
13 | 53:24.02 | 4:33.14 | 240302 | 260790
14 | 57:57.16 | 4:11.53 | 260791 | 279668
15 | 62:08.69 | 4:05.22 | 279669 | 298065
16 | 66:14.16 | 3:30.27 | 298066 | 313842
17 | 69:44.43 | 6:04.51 | 313843 | 341193
18 | 75:49.19 | 2:57.58 | 341194 | 354526
Характеристики диапазона извлечения и сообщения об ошибках
Выбранный диапазон
Имя файла H:\Lossless\2. Поп музыка, Eurodance, Disco\Eurodance, Technopop, Disco\Various - Star Hit, The best of 80s v.2\Various - Star Hit, The best of 80s v.2.wav
Пиковый уровень 100.0 %
0.3 X
Качество диапазона 100.0 %
CRC теста 62BC3548
CRC копии 62BC3548
Копирование... OK
Ошибок не произошло
AccurateRip: сводка
Трек 1 нет в базе данных
Трек 2 нет в базе данных
Трек 3 нет в базе данных
Трек 4 нет в базе данных
Трек 5 нет в базе данных
Трек 6 нет в базе данных
Трек 7 нет в базе данных
Трек 8 нет в базе данных
Трек 9 нет в базе данных
Трек 10 нет в базе данных
Трек 11 нет в базе данных
Трек 12 нет в базе данных
Трек 13 нет в базе данных
Трек 14 нет в базе данных
Трек 15 нет в базе данных
Трек 16 нет в базе данных
Трек 17 нет в базе данных
Трек 18 нет в базе данных
Ни одного трека нет в базе AccurateRip
Конец отчёта
==== 933BED60743F500B446D0CA909DFBEBAEDD3092B24F812DFCA841B16B385A366 ====
 AUDIOCHECKER v2.0 beta (build 457) - by Dester - [email protected]
~~~~~~~~~~~~~~~~~~~~~~~~~~~~~~~~~~
-=== НЕ РЕДАКТИРУЙТЕ ЭТОТ ФАЙЛ! ===-
Путь: ...\Various - Star Hit, The best of 80s v.2
1 -=- Various - Star Hit, The best of 80s v.2.wav -=- CDDA (100%)
103493236

[545.6 MB] Скачать / Download