(Soul, R&B, Funk, Disco) VA - Ministry Of Sound - Funk The Disco (3CD) - 2016, FLAC (tracks+.cue), lossless - Скачать

Жанр: Soul, R&B, Funk, Disco
Носитель: CD
Год издания: 2016
Издатель (лейбл): Ministry Of Sound Ltd
Номер по каталогу: LC 22599
Аудиокодек: FLAC (*.flac)
Тип рипа: tracks+.cue
Битрейт аудио: lossless
Продолжительность: 03:38:30
Источник (релизер): другой трекер (PsPBuRnOuT)
Наличие сканов в содержимом раздачи: да

композиции, pop, трек, высокое качество, mp3, торрент, поп-музыка, download, lossless, дискография, скачать, cd, бесплатно, песни, поп, soundtrack, альбом, музыка, альбом, torrent, pop-music

Tracklist:
01.Chic - Le Freak - 00:03:30
02.Earth, Wind & Fire - Let's Groove - 00:03:33
03.The
Jacksons - Blame It On The Boogie - 00:02:54
04.James Brown - Get Up [I Feel Like Being A Sex Machine] [Pt. 1] -
00:02:41
05.Luther Vandross - Never Too Much - 00:03:45
06.Kool & The Gang - Get Down On It - 00:02:28
07.Rufus & Chaka Khan - Ain't Nobody - 00:03:33
08.Aretha Franklin - Jump To It - 00:04:00
09.Womack
& Womack - Teardrops - 00:03:49
10.Diana Ross - I'm Coming Out - 00:03:12
11.Sister Sledge - He's The
Greatest Dancer - 00:02:41
12.KC & The Sunshine Band - Get Down Tonight - 00:03:14
13.Shalamar - A Night
To Remember - 00:03:18
14.Cheryl Lynn - Got To Be Real - 00:03:40
15.Oliver Cheatham - Get Down Saturday Night
- 00:03:51
16.Patrice Rushen - Forget Me Nots - 00:03:59
17.The Whispers - And The Beat Goes On - 00:04:41
18.Evelyn 'Champagne' King - Love Come Down - 00:02:38
19.Indeep - Last Night A DJ Saved My Life - 00:03:55
20.Mcfadden & Whitehead - Ain't No Stopping Us - 00:03:29
Playing Time - 01:09:00
Лог создания рипа
 Exact Audio Copy V1.3 from 2. September 2016
EAC extraction logfile from 10. December 2016, 7:27
Various / The Ministry Of Sound - Funk The Disco
Used drive : HL-DT-STDVDRAM GSA-E40N Adapter: 1 ID: 0
Read mode : Secure
Utilize accurate stream : Yes
Defeat audio cache : No
Make use of C2 pointers : Yes
Read offset correction : 667
Overread into Lead-In and Lead-Out : No
Fill up missing offset samples with silence : Yes
Delete leading and trailing silent blocks : No
Null samples used in CRC calculations : Yes
Used interface : Native Win32 interface for Win NT & 2000
Gap handling : Not detected, thus appended to previous track
Used output format : User Defined Encoder
Selected bitrate : 896 kBit/s
Quality : High
Add ID3 tag : No
Command line compressor : C:\Program Files (x86)\Exact Audio Copy\FLAC\FLAC.EXE
Additional command line options : -6 -V -T "ARTIST=%artist%" -T "TITLE=%title%" -T "ALBUM=%albumtitle%" -T "DATE=%year%" -T "TRACKNUMBER=%tracknr%" -T "GENRE=%genre%" -T "COMMENT=%comment%" -T "BAND=%albuminterpret%" -T "ALBUMARTIST=%albuminterpret%" -T "COMPOSER=%composer%" %haslyrics%--tag-from-file=LYRICS="%lyricsfile%"%haslyrics% -T "DISCNUMBER=%cdnumber%" -T "TOTALDISCS=%totalcds%" -T "TOTALTRACKS=%numtracks%" %hascover%--picture="%coverfile%"%hascover% %source% -o %dest%
TOC of the extracted CD
Track | Start | Length | Start sector | End sector
---------------------------------------------------------
1 | 0:00.00 | 3:30.41 | 0 | 15790
2 | 3:30.41 | 3:33.61 | 15791 | 31826
3 | 7:04.27 | 2:54.41 | 31827 | 44917
4 | 9:58.68 | 2:41.68 | 44918 | 57060
5 | 12:40.61 | 3:45.15 | 57061 | 73950
6 | 16:26.01 | 2:28.04 | 73951 | 85054
7 | 18:54.05 | 3:33.29 | 85055 | 101058
8 | 22:27.34 | 4:00.64 | 101059 | 119122
9 | 26:28.23 | 3:49.23 | 119123 | 136320
10 | 30:17.46 | 3:12.00 | 136321 | 150720
11 | 33:29.46 | 2:41.35 | 150721 | 162830
12 | 36:11.06 | 3:14.55 | 162831 | 177435
13 | 39:25.61 | 3:18.71 | 177436 | 192356
14 | 42:44.57 | 3:40.05 | 192357 | 208861
15 | 46:24.62 | 3:51.04 | 208862 | 226190
16 | 50:15.66 | 3:59.21 | 226191 | 244136
17 | 54:15.12 | 4:41.61 | 244137 | 265272
18 | 58:56.73 | 2:38.39 | 265273 | 277161
19 | 61:35.37 | 3:55.00 | 277162 | 294786
20 | 65:30.37 | 3:29.42 | 294787 | 310503
Track 1
Filename F:\FLAC MUSIC\DANCE CLUB HOUSE\MINISTRY OF SOUND\Ministry Of Sound - Funk The Disco\MOS-FTD - Mix - 01\01.Chic - Le Freak.wav
Peak level 98.8 %
Extraction speed 16.2 X
Track quality 100.0 %
Copy CRC B8FE7127
Track not present in AccurateRip database
Copy OK
Track 2
Filename F:\FLAC MUSIC\DANCE CLUB HOUSE\MINISTRY OF SOUND\Ministry Of Sound - Funk The Disco\MOS-FTD - Mix - 01\02.Earth, Wind & Fire - Let's Groove.wav
Peak level 98.8 %
Extraction speed 17.3 X
Track quality 99.9 %
Copy CRC 5CB0AD36
Track not present in AccurateRip database
Copy OK
Track 3
Filename F:\FLAC MUSIC\DANCE CLUB HOUSE\MINISTRY OF SOUND\Ministry Of Sound - Funk The Disco\MOS-FTD - Mix - 01\03.The Jacksons - Blame It On The Boogie.wav
Peak level 98.8 %
Extraction speed 18.3 X
Track quality 100.0 %
Copy CRC D7820B7F
Track not present in AccurateRip database
Copy OK
Track 4
Filename F:\FLAC MUSIC\DANCE CLUB HOUSE\MINISTRY OF SOUND\Ministry Of Sound - Funk The Disco\MOS-FTD - Mix - 01\04.James Brown - Get Up [I Feel Like Being A Sex Machine] [Pt. 1].wav
Peak level 98.8 %
Extraction speed 22.3 X
Track quality 100.0 %
Copy CRC 7CD3FFC3
Track not present in AccurateRip database
Copy OK
Track 5
Filename F:\FLAC MUSIC\DANCE CLUB HOUSE\MINISTRY OF SOUND\Ministry Of Sound - Funk The Disco\MOS-FTD - Mix - 01\05.Luther Vandross - Never Too Much.wav
Peak level 98.8 %
Extraction speed 21.1 X
Track quality 100.0 %
Copy CRC E49AB000
Track not present in AccurateRip database
Copy OK
Track 6
Filename F:\FLAC MUSIC\DANCE CLUB HOUSE\MINISTRY OF SOUND\Ministry Of Sound - Funk The Disco\MOS-FTD - Mix - 01\06.Kool & The Gang - Get Down On It.wav
Peak level 98.8 %
Extraction speed 20.4 X
Track quality 100.0 %
Copy CRC 76C26067
Track not present in AccurateRip database
Copy OK
Track 7
Filename F:\FLAC MUSIC\DANCE CLUB HOUSE\MINISTRY OF SOUND\Ministry Of Sound - Funk The Disco\MOS-FTD - Mix - 01\07.Rufus & Chaka Khan - Ain't Nobody.wav
Peak level 98.8 %
Extraction speed 22.0 X
Track quality 100.0 %
Copy CRC 3D50E3FB
Track not present in AccurateRip database
Copy OK
Track 8
Filename F:\FLAC MUSIC\DANCE CLUB HOUSE\MINISTRY OF SOUND\Ministry Of Sound - Funk The Disco\MOS-FTD - Mix - 01\08.Aretha Franklin - Jump To It.wav
Peak level 98.8 %
Extraction speed 24.0 X
Track quality 100.0 %
Copy CRC FE1FD1B8
Track not present in AccurateRip database
Copy OK
Track 9
Filename F:\FLAC MUSIC\DANCE CLUB HOUSE\MINISTRY OF SOUND\Ministry Of Sound - Funk The Disco\MOS-FTD - Mix - 01\09.Womack & Womack - Teardrops.wav
Peak level 98.8 %
Extraction speed 24.9 X
Track quality 100.0 %
Copy CRC F513FBE6
Track not present in AccurateRip database
Copy OK
Track 10
Filename F:\FLAC MUSIC\DANCE CLUB HOUSE\MINISTRY OF SOUND\Ministry Of Sound - Funk The Disco\MOS-FTD - Mix - 01\10.Diana Ross - I'm Coming Out.wav
Peak level 98.8 %
Extraction speed 25.5 X
Track quality 100.0 %
Copy CRC E5F1EAB0
Track not present in AccurateRip database
Copy OK
Track 11
Filename F:\FLAC MUSIC\DANCE CLUB HOUSE\MINISTRY OF SOUND\Ministry Of Sound - Funk The Disco\MOS-FTD - Mix - 01\11.Sister Sledge - He's The Greatest Dancer.wav
Peak level 98.8 %
Extraction speed 25.3 X
Track quality 100.0 %
Copy CRC 335BD27D
Track not present in AccurateRip database
Copy OK
Track 12
Filename F:\FLAC MUSIC\DANCE CLUB HOUSE\MINISTRY OF SOUND\Ministry Of Sound - Funk The Disco\MOS-FTD - Mix - 01\12.KC & The Sunshine Band - Get Down Tonight.wav
Peak level 98.8 %
Extraction speed 29.7 X
Track quality 100.0 %
Copy CRC 8DFC3D04
Track not present in AccurateRip database
Copy OK
Track 13
Filename F:\FLAC MUSIC\DANCE CLUB HOUSE\MINISTRY OF SOUND\Ministry Of Sound - Funk The Disco\MOS-FTD - Mix - 01\13.Shalamar - A Night To Remember.wav
Peak level 98.8 %
Extraction speed 31.8 X
Track quality 100.0 %
Copy CRC F8B68FF1
Track not present in AccurateRip database
Copy OK
Track 14
Filename F:\FLAC MUSIC\DANCE CLUB HOUSE\MINISTRY OF SOUND\Ministry Of Sound - Funk The Disco\MOS-FTD - Mix - 01\14.Cheryl Lynn - Got To Be Real.wav
Peak level 98.8 %
Extraction speed 27.3 X
Track quality 100.0 %
Copy CRC 8CDF135B
Track not present in AccurateRip database
Copy OK
Track 15
Filename F:\FLAC MUSIC\DANCE CLUB HOUSE\MINISTRY OF SOUND\Ministry Of Sound - Funk The Disco\MOS-FTD - Mix - 01\15.Oliver Cheatham - Get Down Saturday Night.wav
Peak level 98.8 %
Extraction speed 33.5 X
Track quality 100.0 %
Copy CRC 63C98538
Track not present in AccurateRip database
Copy OK
Track 16
Filename F:\FLAC MUSIC\DANCE CLUB HOUSE\MINISTRY OF SOUND\Ministry Of Sound - Funk The Disco\MOS-FTD - Mix - 01\16.Patrice Rushen - Forget Me Nots.wav
Peak level 98.8 %
Extraction speed 29.5 X
Track quality 100.0 %
Copy CRC B9568A32
Track not present in AccurateRip database
Copy OK
Track 17
Filename F:\FLAC MUSIC\DANCE CLUB HOUSE\MINISTRY OF SOUND\Ministry Of Sound - Funk The Disco\MOS-FTD - Mix - 01\17.The Whispers - And The Beat Goes On.wav
Peak level 98.8 %
Extraction speed 34.3 X
Track quality 100.0 %
Copy CRC 57D724B2
Track not present in AccurateRip database
Copy OK
Track 18
Filename F:\FLAC MUSIC\DANCE CLUB HOUSE\MINISTRY OF SOUND\Ministry Of Sound - Funk The Disco\MOS-FTD - Mix - 01\18.Evelyn 'Champagne' King - Love Come Down.wav
Peak level 98.8 %
Extraction speed 35.9 X
Track quality 100.0 %
Copy CRC E1B8B334
Track not present in AccurateRip database
Copy OK
Track 19
Filename F:\FLAC MUSIC\DANCE CLUB HOUSE\MINISTRY OF SOUND\Ministry Of Sound - Funk The Disco\MOS-FTD - Mix - 01\19.Indeep - Last Night A DJ Saved My Life.wav
Peak level 98.8 %
Extraction speed 36.4 X
Track quality 100.0 %
Copy CRC E3BCD45D
Track not present in AccurateRip database
Copy OK
Track 20
Filename F:\FLAC MUSIC\DANCE CLUB HOUSE\MINISTRY OF SOUND\Ministry Of Sound - Funk The Disco\MOS-FTD - Mix - 01\20.Mcfadden & Whitehead - Ain't No Stopping Us.wav
Peak level 98.8 %
Extraction speed 32.3 X
Track quality 100.0 %
Copy CRC F5A0C22B
Track not present in AccurateRip database
Copy OK
None of the tracks are present in the AccurateRip database
No errors occurred
End of status report
---- CUETools DB Plugin V2.1.6
[CTDB TOCID: iM4I9.QTSo2L8dlArW228EVKQ2o-] found
Submit result: iM4I9.QTSo2L8dlArW228EVKQ2o- has been confirmed
Track | CTDB Status
1 | (7/7) Accurately ripped
2 | (7/7) Accurately ripped
3 | (7/7) Accurately ripped
4 | (7/7) Accurately ripped
5 | (7/7) Accurately ripped
6 | (7/7) Accurately ripped
7 | (7/7) Accurately ripped
8 | (7/7) Accurately ripped
9 | (7/7) Accurately ripped
10 | (7/7) Accurately ripped
11 | (7/7) Accurately ripped
12 | (7/7) Accurately ripped
13 | (7/7) Accurately ripped
14 | (7/7) Accurately ripped
15 | (7/7) Accurately ripped
16 | (7/7) Accurately ripped
17 | (7/7) Accurately ripped
18 | (7/7) Accurately ripped
19 | (7/7) Accurately ripped
20 | (7/7) Accurately ripped
Содержание индексной карты (.CUE)
 REM GENRE Soul/Funk
REM DATE 2016
REM DISCID 26102C14
REM COMMENT "Exact Audio Copy v1.3"
PERFORMER "Various"
TITLE "The Ministry Of Sound - Funk The Disco"
FILE "01.Chic - Le Freak.flac" WAVE
TRACK 01 AUDIO
TITLE "Le Freak"
PERFORMER "Chic"
INDEX 01 00:00:00
FILE "02.Earth, Wind & Fire - Let's Groove.flac" WAVE
TRACK 02 AUDIO
TITLE "Let's Groove"
PERFORMER "Earth, Wind & Fire"
INDEX 01 00:00:00
FILE "03.The Jacksons - Blame It On The Boogie.flac" WAVE
TRACK 03 AUDIO
TITLE "Blame It On The Boogie"
PERFORMER "The Jacksons"
INDEX 01 00:00:00
FILE "04.James Brown - Get Up [I Feel Like Being A Sex Machine] [Pt. 1].flac" WAVE
TRACK 04 AUDIO
TITLE "Get Up [I Feel Like Being A Sex Machine] [Pt. 1]"
PERFORMER "James Brown"
INDEX 01 00:00:00
FILE "05.Luther Vandross - Never Too Much.flac" WAVE
TRACK 05 AUDIO
TITLE "Never Too Much"
PERFORMER "Luther Vandross"
INDEX 01 00:00:00
FILE "06.Kool & The Gang - Get Down On It.flac" WAVE
TRACK 06 AUDIO
TITLE "Get Down On It"
PERFORMER "Kool & The Gang"
INDEX 01 00:00:00
FILE "07.Rufus & Chaka Khan - Ain't Nobody.flac" WAVE
TRACK 07 AUDIO
TITLE "Ain't Nobody"
PERFORMER "Rufus & Chaka Khan"
INDEX 01 00:00:00
FILE "08.Aretha Franklin - Jump To It.flac" WAVE
TRACK 08 AUDIO
TITLE "Jump To It"
PERFORMER "Aretha Franklin"
INDEX 01 00:00:00
FILE "09.Womack & Womack - Teardrops.flac" WAVE
TRACK 09 AUDIO
TITLE "Teardrops"
PERFORMER "Womack & Womack"
INDEX 01 00:00:00
FILE "10.Diana Ross - I'm Coming Out.flac" WAVE
TRACK 10 AUDIO
TITLE "I'm Coming Out"
PERFORMER "Diana Ross"
INDEX 01 00:00:00
FILE "11.Sister Sledge - He's The Greatest Dancer.flac" WAVE
TRACK 11 AUDIO
TITLE "He's The Greatest Dancer"
PERFORMER "Sister Sledge"
INDEX 01 00:00:00
FILE "12.KC & The Sunshine Band - Get Down Tonight.flac" WAVE
TRACK 12 AUDIO
TITLE "Get Down Tonight"
PERFORMER "KC & The Sunshine Band"
INDEX 01 00:00:00
FILE "13.Shalamar - A Night To Remember.flac" WAVE
TRACK 13 AUDIO
TITLE "A Night To Remember"
PERFORMER "Shalamar"
INDEX 01 00:00:00
FILE "14.Cheryl Lynn - Got To Be Real.flac" WAVE
TRACK 14 AUDIO
TITLE "Got To Be Real"
PERFORMER "Cheryl Lynn"
INDEX 01 00:00:00
FILE "15.Oliver Cheatham - Get Down Saturday Night.flac" WAVE
TRACK 15 AUDIO
TITLE "Get Down Saturday Night"
PERFORMER "Oliver Cheatham"
INDEX 01 00:00:00
FILE "16.Patrice Rushen - Forget Me Nots.flac" WAVE
TRACK 16 AUDIO
TITLE "Forget Me Nots"
PERFORMER "Patrice Rushen"
INDEX 01 00:00:00
FILE "17.The Whispers - And The Beat Goes On.flac" WAVE
TRACK 17 AUDIO
TITLE "And The Beat Goes On"
PERFORMER "The Whispers"
INDEX 01 00:00:00
FILE "18.Evelyn 'Champagne' King - Love Come Down.flac" WAVE
TRACK 18 AUDIO
TITLE "Love Come Down"
PERFORMER "Evelyn 'Champagne' King"
INDEX 01 00:00:00
FILE "19.Indeep - Last Night A DJ Saved My Life.flac" WAVE
TRACK 19 AUDIO
TITLE "Last Night A DJ Saved My Life"
PERFORMER "Indeep"
INDEX 01 00:00:00
FILE "20.Mcfadden & Whitehead - Ain't No Stopping Us.flac" WAVE
TRACK 20 AUDIO
TITLE "Ain't No Stopping Us"
PERFORMER "Mcfadden & Whitehead"
INDEX 01 00:00:00
01.Chic - Le Freak - 00:03:30
02.Earth, Wind & Fire - Let's Groove - 00:03:33
03.The
Jacksons - Blame It On The Boogie - 00:02:54
04.James Brown - Get Up [I Feel Like Being A Sex Machine] [Pt. 1] -
00:02:41
05.Luther Vandross - Never Too Much - 00:03:45
06.Kool & The Gang - Get Down On It - 00:02:28
07.Rufus & Chaka Khan - Ain't Nobody - 00:03:33
08.Aretha Franklin - Jump To It - 00:04:00
09.Womack
& Womack - Teardrops - 00:03:49
10.Diana Ross - I'm Coming Out - 00:03:12
11.Sister Sledge - He's The
Greatest Dancer - 00:02:41
12.KC & The Sunshine Band - Get Down Tonight - 00:03:14
13.Shalamar - A Night
To Remember - 00:03:18
14.Cheryl Lynn - Got To Be Real - 00:03:40
15.Oliver Cheatham - Get Down Saturday Night
- 00:03:51
16.Patrice Rushen - Forget Me Nots - 00:03:59
17.The Whispers - And The Beat Goes On - 00:04:41
18.Evelyn 'Champagne' King - Love Come Down - 00:02:38
19.Indeep - Last Night A DJ Saved My Life - 00:03:55
20.Mcfadden & Whitehead - Ain't No Stopping Us - 00:03:29
Playing Time - 01:09:00
 Exact Audio Copy V1.3 from 2. September 2016
EAC extraction logfile from 10. December 2016, 7:27
Various / The Ministry Of Sound - Funk The Disco
Used drive : HL-DT-STDVDRAM GSA-E40N Adapter: 1 ID: 0
Read mode : Secure
Utilize accurate stream : Yes
Defeat audio cache : No
Make use of C2 pointers : Yes
Read offset correction : 667
Overread into Lead-In and Lead-Out : No
Fill up missing offset samples with silence : Yes
Delete leading and trailing silent blocks : No
Null samples used in CRC calculations : Yes
Used interface : Native Win32 interface for Win NT & 2000
Gap handling : Not detected, thus appended to previous track
Used output format : User Defined Encoder
Selected bitrate : 896 kBit/s
Quality : High
Add ID3 tag : No
Command line compressor : C:\Program Files (x86)\Exact Audio Copy\FLAC\FLAC.EXE
Additional command line options : -6 -V -T "ARTIST=%artist%" -T "TITLE=%title%" -T "ALBUM=%albumtitle%" -T "DATE=%year%" -T "TRACKNUMBER=%tracknr%" -T "GENRE=%genre%" -T "COMMENT=%comment%" -T "BAND=%albuminterpret%" -T "ALBUMARTIST=%albuminterpret%" -T "COMPOSER=%composer%" %haslyrics%--tag-from-file=LYRICS="%lyricsfile%"%haslyrics% -T "DISCNUMBER=%cdnumber%" -T "TOTALDISCS=%totalcds%" -T "TOTALTRACKS=%numtracks%" %hascover%--picture="%coverfile%"%hascover% %source% -o %dest%
TOC of the extracted CD
Track | Start | Length | Start sector | End sector
---------------------------------------------------------
1 | 0:00.00 | 3:30.41 | 0 | 15790
2 | 3:30.41 | 3:33.61 | 15791 | 31826
3 | 7:04.27 | 2:54.41 | 31827 | 44917
4 | 9:58.68 | 2:41.68 | 44918 | 57060
5 | 12:40.61 | 3:45.15 | 57061 | 73950
6 | 16:26.01 | 2:28.04 | 73951 | 85054
7 | 18:54.05 | 3:33.29 | 85055 | 101058
8 | 22:27.34 | 4:00.64 | 101059 | 119122
9 | 26:28.23 | 3:49.23 | 119123 | 136320
10 | 30:17.46 | 3:12.00 | 136321 | 150720
11 | 33:29.46 | 2:41.35 | 150721 | 162830
12 | 36:11.06 | 3:14.55 | 162831 | 177435
13 | 39:25.61 | 3:18.71 | 177436 | 192356
14 | 42:44.57 | 3:40.05 | 192357 | 208861
15 | 46:24.62 | 3:51.04 | 208862 | 226190
16 | 50:15.66 | 3:59.21 | 226191 | 244136
17 | 54:15.12 | 4:41.61 | 244137 | 265272
18 | 58:56.73 | 2:38.39 | 265273 | 277161
19 | 61:35.37 | 3:55.00 | 277162 | 294786
20 | 65:30.37 | 3:29.42 | 294787 | 310503
Track 1
Filename F:\FLAC MUSIC\DANCE CLUB HOUSE\MINISTRY OF SOUND\Ministry Of Sound - Funk The Disco\MOS-FTD - Mix - 01\01.Chic - Le Freak.wav
Peak level 98.8 %
Extraction speed 16.2 X
Track quality 100.0 %
Copy CRC B8FE7127
Track not present in AccurateRip database
Copy OK
Track 2
Filename F:\FLAC MUSIC\DANCE CLUB HOUSE\MINISTRY OF SOUND\Ministry Of Sound - Funk The Disco\MOS-FTD - Mix - 01\02.Earth, Wind & Fire - Let's Groove.wav
Peak level 98.8 %
Extraction speed 17.3 X
Track quality 99.9 %
Copy CRC 5CB0AD36
Track not present in AccurateRip database
Copy OK
Track 3
Filename F:\FLAC MUSIC\DANCE CLUB HOUSE\MINISTRY OF SOUND\Ministry Of Sound - Funk The Disco\MOS-FTD - Mix - 01\03.The Jacksons - Blame It On The Boogie.wav
Peak level 98.8 %
Extraction speed 18.3 X
Track quality 100.0 %
Copy CRC D7820B7F
Track not present in AccurateRip database
Copy OK
Track 4
Filename F:\FLAC MUSIC\DANCE CLUB HOUSE\MINISTRY OF SOUND\Ministry Of Sound - Funk The Disco\MOS-FTD - Mix - 01\04.James Brown - Get Up [I Feel Like Being A Sex Machine] [Pt. 1].wav
Peak level 98.8 %
Extraction speed 22.3 X
Track quality 100.0 %
Copy CRC 7CD3FFC3
Track not present in AccurateRip database
Copy OK
Track 5
Filename F:\FLAC MUSIC\DANCE CLUB HOUSE\MINISTRY OF SOUND\Ministry Of Sound - Funk The Disco\MOS-FTD - Mix - 01\05.Luther Vandross - Never Too Much.wav
Peak level 98.8 %
Extraction speed 21.1 X
Track quality 100.0 %
Copy CRC E49AB000
Track not present in AccurateRip database
Copy OK
Track 6
Filename F:\FLAC MUSIC\DANCE CLUB HOUSE\MINISTRY OF SOUND\Ministry Of Sound - Funk The Disco\MOS-FTD - Mix - 01\06.Kool & The Gang - Get Down On It.wav
Peak level 98.8 %
Extraction speed 20.4 X
Track quality 100.0 %
Copy CRC 76C26067
Track not present in AccurateRip database
Copy OK
Track 7
Filename F:\FLAC MUSIC\DANCE CLUB HOUSE\MINISTRY OF SOUND\Ministry Of Sound - Funk The Disco\MOS-FTD - Mix - 01\07.Rufus & Chaka Khan - Ain't Nobody.wav
Peak level 98.8 %
Extraction speed 22.0 X
Track quality 100.0 %
Copy CRC 3D50E3FB
Track not present in AccurateRip database
Copy OK
Track 8
Filename F:\FLAC MUSIC\DANCE CLUB HOUSE\MINISTRY OF SOUND\Ministry Of Sound - Funk The Disco\MOS-FTD - Mix - 01\08.Aretha Franklin - Jump To It.wav
Peak level 98.8 %
Extraction speed 24.0 X
Track quality 100.0 %
Copy CRC FE1FD1B8
Track not present in AccurateRip database
Copy OK
Track 9
Filename F:\FLAC MUSIC\DANCE CLUB HOUSE\MINISTRY OF SOUND\Ministry Of Sound - Funk The Disco\MOS-FTD - Mix - 01\09.Womack & Womack - Teardrops.wav
Peak level 98.8 %
Extraction speed 24.9 X
Track quality 100.0 %
Copy CRC F513FBE6
Track not present in AccurateRip database
Copy OK
Track 10
Filename F:\FLAC MUSIC\DANCE CLUB HOUSE\MINISTRY OF SOUND\Ministry Of Sound - Funk The Disco\MOS-FTD - Mix - 01\10.Diana Ross - I'm Coming Out.wav
Peak level 98.8 %
Extraction speed 25.5 X
Track quality 100.0 %
Copy CRC E5F1EAB0
Track not present in AccurateRip database
Copy OK
Track 11
Filename F:\FLAC MUSIC\DANCE CLUB HOUSE\MINISTRY OF SOUND\Ministry Of Sound - Funk The Disco\MOS-FTD - Mix - 01\11.Sister Sledge - He's The Greatest Dancer.wav
Peak level 98.8 %
Extraction speed 25.3 X
Track quality 100.0 %
Copy CRC 335BD27D
Track not present in AccurateRip database
Copy OK
Track 12
Filename F:\FLAC MUSIC\DANCE CLUB HOUSE\MINISTRY OF SOUND\Ministry Of Sound - Funk The Disco\MOS-FTD - Mix - 01\12.KC & The Sunshine Band - Get Down Tonight.wav
Peak level 98.8 %
Extraction speed 29.7 X
Track quality 100.0 %
Copy CRC 8DFC3D04
Track not present in AccurateRip database
Copy OK
Track 13
Filename F:\FLAC MUSIC\DANCE CLUB HOUSE\MINISTRY OF SOUND\Ministry Of Sound - Funk The Disco\MOS-FTD - Mix - 01\13.Shalamar - A Night To Remember.wav
Peak level 98.8 %
Extraction speed 31.8 X
Track quality 100.0 %
Copy CRC F8B68FF1
Track not present in AccurateRip database
Copy OK
Track 14
Filename F:\FLAC MUSIC\DANCE CLUB HOUSE\MINISTRY OF SOUND\Ministry Of Sound - Funk The Disco\MOS-FTD - Mix - 01\14.Cheryl Lynn - Got To Be Real.wav
Peak level 98.8 %
Extraction speed 27.3 X
Track quality 100.0 %
Copy CRC 8CDF135B
Track not present in AccurateRip database
Copy OK
Track 15
Filename F:\FLAC MUSIC\DANCE CLUB HOUSE\MINISTRY OF SOUND\Ministry Of Sound - Funk The Disco\MOS-FTD - Mix - 01\15.Oliver Cheatham - Get Down Saturday Night.wav
Peak level 98.8 %
Extraction speed 33.5 X
Track quality 100.0 %
Copy CRC 63C98538
Track not present in AccurateRip database
Copy OK
Track 16
Filename F:\FLAC MUSIC\DANCE CLUB HOUSE\MINISTRY OF SOUND\Ministry Of Sound - Funk The Disco\MOS-FTD - Mix - 01\16.Patrice Rushen - Forget Me Nots.wav
Peak level 98.8 %
Extraction speed 29.5 X
Track quality 100.0 %
Copy CRC B9568A32
Track not present in AccurateRip database
Copy OK
Track 17
Filename F:\FLAC MUSIC\DANCE CLUB HOUSE\MINISTRY OF SOUND\Ministry Of Sound - Funk The Disco\MOS-FTD - Mix - 01\17.The Whispers - And The Beat Goes On.wav
Peak level 98.8 %
Extraction speed 34.3 X
Track quality 100.0 %
Copy CRC 57D724B2
Track not present in AccurateRip database
Copy OK
Track 18
Filename F:\FLAC MUSIC\DANCE CLUB HOUSE\MINISTRY OF SOUND\Ministry Of Sound - Funk The Disco\MOS-FTD - Mix - 01\18.Evelyn 'Champagne' King - Love Come Down.wav
Peak level 98.8 %
Extraction speed 35.9 X
Track quality 100.0 %
Copy CRC E1B8B334
Track not present in AccurateRip database
Copy OK
Track 19
Filename F:\FLAC MUSIC\DANCE CLUB HOUSE\MINISTRY OF SOUND\Ministry Of Sound - Funk The Disco\MOS-FTD - Mix - 01\19.Indeep - Last Night A DJ Saved My Life.wav
Peak level 98.8 %
Extraction speed 36.4 X
Track quality 100.0 %
Copy CRC E3BCD45D
Track not present in AccurateRip database
Copy OK
Track 20
Filename F:\FLAC MUSIC\DANCE CLUB HOUSE\MINISTRY OF SOUND\Ministry Of Sound - Funk The Disco\MOS-FTD - Mix - 01\20.Mcfadden & Whitehead - Ain't No Stopping Us.wav
Peak level 98.8 %
Extraction speed 32.3 X
Track quality 100.0 %
Copy CRC F5A0C22B
Track not present in AccurateRip database
Copy OK
None of the tracks are present in the AccurateRip database
No errors occurred
End of status report
---- CUETools DB Plugin V2.1.6
[CTDB TOCID: iM4I9.QTSo2L8dlArW228EVKQ2o-] found
Submit result: iM4I9.QTSo2L8dlArW228EVKQ2o- has been confirmed
Track | CTDB Status
1 | (7/7) Accurately ripped
2 | (7/7) Accurately ripped
3 | (7/7) Accurately ripped
4 | (7/7) Accurately ripped
5 | (7/7) Accurately ripped
6 | (7/7) Accurately ripped
7 | (7/7) Accurately ripped
8 | (7/7) Accurately ripped
9 | (7/7) Accurately ripped
10 | (7/7) Accurately ripped
11 | (7/7) Accurately ripped
12 | (7/7) Accurately ripped
13 | (7/7) Accurately ripped
14 | (7/7) Accurately ripped
15 | (7/7) Accurately ripped
16 | (7/7) Accurately ripped
17 | (7/7) Accurately ripped
18 | (7/7) Accurately ripped
19 | (7/7) Accurately ripped
20 | (7/7) Accurately ripped
 REM GENRE Soul/Funk
REM DATE 2016
REM DISCID 26102C14
REM COMMENT "Exact Audio Copy v1.3"
PERFORMER "Various"
TITLE "The Ministry Of Sound - Funk The Disco"
FILE "01.Chic - Le Freak.flac" WAVE
TRACK 01 AUDIO
TITLE "Le Freak"
PERFORMER "Chic"
INDEX 01 00:00:00
FILE "02.Earth, Wind & Fire - Let's Groove.flac" WAVE
TRACK 02 AUDIO
TITLE "Let's Groove"
PERFORMER "Earth, Wind & Fire"
INDEX 01 00:00:00
FILE "03.The Jacksons - Blame It On The Boogie.flac" WAVE
TRACK 03 AUDIO
TITLE "Blame It On The Boogie"
PERFORMER "The Jacksons"
INDEX 01 00:00:00
FILE "04.James Brown - Get Up [I Feel Like Being A Sex Machine] [Pt. 1].flac" WAVE
TRACK 04 AUDIO
TITLE "Get Up [I Feel Like Being A Sex Machine] [Pt. 1]"
PERFORMER "James Brown"
INDEX 01 00:00:00
FILE "05.Luther Vandross - Never Too Much.flac" WAVE
TRACK 05 AUDIO
TITLE "Never Too Much"
PERFORMER "Luther Vandross"
INDEX 01 00:00:00
FILE "06.Kool & The Gang - Get Down On It.flac" WAVE
TRACK 06 AUDIO
TITLE "Get Down On It"
PERFORMER "Kool & The Gang"
INDEX 01 00:00:00
FILE "07.Rufus & Chaka Khan - Ain't Nobody.flac" WAVE
TRACK 07 AUDIO
TITLE "Ain't Nobody"
PERFORMER "Rufus & Chaka Khan"
INDEX 01 00:00:00
FILE "08.Aretha Franklin - Jump To It.flac" WAVE
TRACK 08 AUDIO
TITLE "Jump To It"
PERFORMER "Aretha Franklin"
INDEX 01 00:00:00
FILE "09.Womack & Womack - Teardrops.flac" WAVE
TRACK 09 AUDIO
TITLE "Teardrops"
PERFORMER "Womack & Womack"
INDEX 01 00:00:00
FILE "10.Diana Ross - I'm Coming Out.flac" WAVE
TRACK 10 AUDIO
TITLE "I'm Coming Out"
PERFORMER "Diana Ross"
INDEX 01 00:00:00
FILE "11.Sister Sledge - He's The Greatest Dancer.flac" WAVE
TRACK 11 AUDIO
TITLE "He's The Greatest Dancer"
PERFORMER "Sister Sledge"
INDEX 01 00:00:00
FILE "12.KC & The Sunshine Band - Get Down Tonight.flac" WAVE
TRACK 12 AUDIO
TITLE "Get Down Tonight"
PERFORMER "KC & The Sunshine Band"
INDEX 01 00:00:00
FILE "13.Shalamar - A Night To Remember.flac" WAVE
TRACK 13 AUDIO
TITLE "A Night To Remember"
PERFORMER "Shalamar"
INDEX 01 00:00:00
FILE "14.Cheryl Lynn - Got To Be Real.flac" WAVE
TRACK 14 AUDIO
TITLE "Got To Be Real"
PERFORMER "Cheryl Lynn"
INDEX 01 00:00:00
FILE "15.Oliver Cheatham - Get Down Saturday Night.flac" WAVE
TRACK 15 AUDIO
TITLE "Get Down Saturday Night"
PERFORMER "Oliver Cheatham"
INDEX 01 00:00:00
FILE "16.Patrice Rushen - Forget Me Nots.flac" WAVE
TRACK 16 AUDIO
TITLE "Forget Me Nots"
PERFORMER "Patrice Rushen"
INDEX 01 00:00:00
FILE "17.The Whispers - And The Beat Goes On.flac" WAVE
TRACK 17 AUDIO
TITLE "And The Beat Goes On"
PERFORMER "The Whispers"
INDEX 01 00:00:00
FILE "18.Evelyn 'Champagne' King - Love Come Down.flac" WAVE
TRACK 18 AUDIO
TITLE "Love Come Down"
PERFORMER "Evelyn 'Champagne' King"
INDEX 01 00:00:00
FILE "19.Indeep - Last Night A DJ Saved My Life.flac" WAVE
TRACK 19 AUDIO
TITLE "Last Night A DJ Saved My Life"
PERFORMER "Indeep"
INDEX 01 00:00:00
FILE "20.Mcfadden & Whitehead - Ain't No Stopping Us.flac" WAVE
TRACK 20 AUDIO
TITLE "Ain't No Stopping Us"
PERFORMER "Mcfadden & Whitehead"
INDEX 01 00:00:00
Tracklist:
01.The Jacksons - Shake Your Body Down [To The Ground] - 00:03:36
02.Earth, Wind & Fire -
September - 00:03:37
03.Marvin Gaye - Got To Give It Up - 00:03:37
04.Cameo - Word Up! - 00:03:59
05.James Brown - Get Up Offa That Thing - 00:03:42
06.Wild Cherry - Play That Funky Music - 00:03:00
07.Lipps Inc. - Funky Town - 00:03:17
08.The O'Jays - Love Train - 00:02:47
09.Rick James - Give It To Me
Baby - 00:03:16
10.Commodores - Brick House - 00:02:49
11.The Fatback Band - I Found Lovin' - 00:03:33
12.Average White Band - Pick Up The Pieces - 00:03:55
13.Roy Ayers - Love Will Bring Us Back Together Again -
00:05:36
14.Kool & The Gang - Fresh - 00:03:41
15.Heatwave - Boogie Nights - 00:03:13
16.Anita Ward -
Ring My Bell - 00:03:21
17.Peaches & Herb - Shake Your Groove Thing - 00:06:28
18.Booker Newbury III -
Love Town - 00:05:03
19.First Choice Feat. Rochelle Fleming - Let No Man Put Asunder - 00:04:04
20.Shannon -
Let The Music Play - 00:03:24
Playing Time - 01:16:08
Лог создания рипа
 Exact Audio Copy V1.3 from 2. September 2016
EAC extraction logfile from 10. December 2016, 8:23
Various / Ministry Of Sound - Funk The Disco
Used drive : HL-DT-STDVDRAM GSA-E40N Adapter: 1 ID: 0
Read mode : Secure
Utilize accurate stream : Yes
Defeat audio cache : No
Make use of C2 pointers : Yes
Read offset correction : 667
Overread into Lead-In and Lead-Out : No
Fill up missing offset samples with silence : Yes
Delete leading and trailing silent blocks : No
Null samples used in CRC calculations : Yes
Used interface : Native Win32 interface for Win NT & 2000
Gap handling : Not detected, thus appended to previous track
Used output format : User Defined Encoder
Selected bitrate : 896 kBit/s
Quality : High
Add ID3 tag : No
Command line compressor : C:\Program Files (x86)\Exact Audio Copy\FLAC\FLAC.EXE
Additional command line options : -6 -V -T "ARTIST=%artist%" -T "TITLE=%title%" -T "ALBUM=%albumtitle%" -T "DATE=%year%" -T "TRACKNUMBER=%tracknr%" -T "GENRE=%genre%" -T "COMMENT=%comment%" -T "BAND=%albuminterpret%" -T "ALBUMARTIST=%albuminterpret%" -T "COMPOSER=%composer%" %haslyrics%--tag-from-file=LYRICS="%lyricsfile%"%haslyrics% -T "DISCNUMBER=%cdnumber%" -T "TOTALDISCS=%totalcds%" -T "TOTALTRACKS=%numtracks%" %hascover%--picture="%coverfile%"%hascover% %source% -o %dest%
TOC of the extracted CD
Track | Start | Length | Start sector | End sector
---------------------------------------------------------
1 | 0:00.00 | 3:36.53 | 0 | 16252
2 | 3:36.53 | 3:37.41 | 16253 | 32568
3 | 7:14.19 | 3:37.53 | 32569 | 48896
4 | 10:51.72 | 3:59.09 | 48897 | 66830
5 | 14:51.06 | 3:42.17 | 66831 | 83497
6 | 18:33.23 | 3:00.71 | 83498 | 97068
7 | 21:34.19 | 3:17.03 | 97069 | 111846
8 | 24:51.22 | 2:47.40 | 111847 | 124411
9 | 27:38.62 | 3:16.16 | 124412 | 139127
10 | 30:55.03 | 2:49.46 | 139128 | 151848
11 | 33:44.49 | 3:33.33 | 151849 | 167856
12 | 37:18.07 | 3:55.14 | 167857 | 185495
13 | 41:13.21 | 5:36.29 | 185496 | 210724
14 | 46:49.50 | 3:41.50 | 210725 | 227349
15 | 50:31.25 | 3:13.66 | 227350 | 241890
16 | 53:45.16 | 3:21.17 | 241891 | 256982
17 | 57:06.33 | 6:28.35 | 256983 | 286117
18 | 63:34.68 | 5:03.70 | 286118 | 308912
19 | 68:38.63 | 4:04.57 | 308913 | 327269
20 | 72:43.45 | 3:24.74 | 327270 | 342643
Track 1
Filename F:\FLAC MUSIC\DANCE CLUB HOUSE\MINISTRY OF SOUND\Ministry Of Sound - Funk The Disco\MOS-FTD - Mix - 02\01.The Jacksons - Shake Your Body Down [To The Ground].wav
Peak level 98.8 %
Extraction speed 15.8 X
Track quality 99.9 %
Copy CRC 066CC8CD
Track not present in AccurateRip database
Copy OK
Track 2
Filename F:\FLAC MUSIC\DANCE CLUB HOUSE\MINISTRY OF SOUND\Ministry Of Sound - Funk The Disco\MOS-FTD - Mix - 02\02.Earth, Wind & Fire - September.wav
Peak level 98.8 %
Extraction speed 17.6 X
Track quality 100.0 %
Copy CRC 1E5800EC
Track not present in AccurateRip database
Copy OK
Track 3
Filename F:\FLAC MUSIC\DANCE CLUB HOUSE\MINISTRY OF SOUND\Ministry Of Sound - Funk The Disco\MOS-FTD - Mix - 02\03.Marvin Gaye - Got To Give It Up.wav
Peak level 98.8 %
Extraction speed 21.3 X
Track quality 100.0 %
Copy CRC E8E2B6A8
Track not present in AccurateRip database
Copy OK
Track 4
Filename F:\FLAC MUSIC\DANCE CLUB HOUSE\MINISTRY OF SOUND\Ministry Of Sound - Funk The Disco\MOS-FTD - Mix - 02\04.Cameo - Word Up!.wav
Peak level 98.8 %
Extraction speed 22.9 X
Track quality 100.0 %
Copy CRC 7FD6EA34
Track not present in AccurateRip database
Copy OK
Track 5
Filename F:\FLAC MUSIC\DANCE CLUB HOUSE\MINISTRY OF SOUND\Ministry Of Sound - Funk The Disco\MOS-FTD - Mix - 02\05.James Brown - Get Up Offa That Thing.wav
Peak level 98.8 %
Extraction speed 24.2 X
Track quality 100.0 %
Copy CRC 48147969
Track not present in AccurateRip database
Copy OK
Track 6
Filename F:\FLAC MUSIC\DANCE CLUB HOUSE\MINISTRY OF SOUND\Ministry Of Sound - Funk The Disco\MOS-FTD - Mix - 02\06.Wild Cherry - Play That Funky Music.wav
Peak level 98.8 %
Extraction speed 22.1 X
Track quality 100.0 %
Copy CRC 366DD0A4
Track not present in AccurateRip database
Copy OK
Track 7
Filename F:\FLAC MUSIC\DANCE CLUB HOUSE\MINISTRY OF SOUND\Ministry Of Sound - Funk The Disco\MOS-FTD - Mix - 02\07.Lipps Inc. - Funky Town.wav
Peak level 98.8 %
Extraction speed 26.4 X
Track quality 100.0 %
Copy CRC 2BABF7BA
Track not present in AccurateRip database
Copy OK
Track 8
Filename F:\FLAC MUSIC\DANCE CLUB HOUSE\MINISTRY OF SOUND\Ministry Of Sound - Funk The Disco\MOS-FTD - Mix - 02\08.The O’Jays - Love Train.wav
Peak level 98.8 %
Extraction speed 23.6 X
Track quality 100.0 %
Copy CRC ED1DB36A
Track not present in AccurateRip database
Copy OK
Track 9
Filename F:\FLAC MUSIC\DANCE CLUB HOUSE\MINISTRY OF SOUND\Ministry Of Sound - Funk The Disco\MOS-FTD - Mix - 02\09.Rick James - Give It To Me Baby.wav
Peak level 98.8 %
Extraction speed 24.1 X
Track quality 100.0 %
Copy CRC C686F81F
Track not present in AccurateRip database
Copy OK
Track 10
Filename F:\FLAC MUSIC\DANCE CLUB HOUSE\MINISTRY OF SOUND\Ministry Of Sound - Funk The Disco\MOS-FTD - Mix - 02\10.Commodores - Brick House.wav
Peak level 98.8 %
Extraction speed 29.0 X
Track quality 100.0 %
Copy CRC DE646966
Track not present in AccurateRip database
Copy OK
Track 11
Filename F:\FLAC MUSIC\DANCE CLUB HOUSE\MINISTRY OF SOUND\Ministry Of Sound - Funk The Disco\MOS-FTD - Mix - 02\11.The Fatback Band - I Found Lovin'.wav
Peak level 98.8 %
Extraction speed 26.7 X
Track quality 100.0 %
Copy CRC B43D081B
Track not present in AccurateRip database
Copy OK
Track 12
Filename F:\FLAC MUSIC\DANCE CLUB HOUSE\MINISTRY OF SOUND\Ministry Of Sound - Funk The Disco\MOS-FTD - Mix - 02\12.Average White Band - Pick Up The Pieces.wav
Peak level 98.8 %
Extraction speed 25.8 X
Track quality 99.9 %
Copy CRC 251B2C34
Track not present in AccurateRip database
Copy OK
Track 13
Filename F:\FLAC MUSIC\DANCE CLUB HOUSE\MINISTRY OF SOUND\Ministry Of Sound - Funk The Disco\MOS-FTD - Mix - 02\13.Roy Ayers - Love Will Bring Us Back Together Again.wav
Peak level 98.8 %
Extraction speed 28.6 X
Track quality 100.0 %
Copy CRC 411166E5
Track not present in AccurateRip database
Copy OK
Track 14
Filename F:\FLAC MUSIC\DANCE CLUB HOUSE\MINISTRY OF SOUND\Ministry Of Sound - Funk The Disco\MOS-FTD - Mix - 02\14.Kool & The Gang - Fresh.wav
Peak level 98.8 %
Extraction speed 29.0 X
Track quality 100.0 %
Copy CRC 2B2AC6C5
Track not present in AccurateRip database
Copy OK
Track 15
Filename F:\FLAC MUSIC\DANCE CLUB HOUSE\MINISTRY OF SOUND\Ministry Of Sound - Funk The Disco\MOS-FTD - Mix - 02\15.Heatwave - Boogie Nights.wav
Peak level 98.8 %
Extraction speed 34.3 X
Track quality 100.0 %
Copy CRC FFDFBAC4
Track not present in AccurateRip database
Copy OK
Track 16
Filename F:\FLAC MUSIC\DANCE CLUB HOUSE\MINISTRY OF SOUND\Ministry Of Sound - Funk The Disco\MOS-FTD - Mix - 02\16.Anita Ward - Ring My Bell.wav
Peak level 98.8 %
Extraction speed 29.5 X
Track quality 100.0 %
Copy CRC C5BF9D42
Track not present in AccurateRip database
Copy OK
Track 17
Filename F:\FLAC MUSIC\DANCE CLUB HOUSE\MINISTRY OF SOUND\Ministry Of Sound - Funk The Disco\MOS-FTD - Mix - 02\17.Peaches & Herb - Shake Your Groove Thing.wav
Peak level 98.8 %
Extraction speed 32.0 X
Track quality 99.9 %
Copy CRC 801015D1
Track not present in AccurateRip database
Copy OK
Track 18
Filename F:\FLAC MUSIC\DANCE CLUB HOUSE\MINISTRY OF SOUND\Ministry Of Sound - Funk The Disco\MOS-FTD - Mix - 02\18.Booker Newbury III - Love Town.wav
Peak level 98.8 %
Extraction speed 32.5 X
Track quality 100.0 %
Copy CRC 92E4C3D1
Track not present in AccurateRip database
Copy OK
Track 19
Filename F:\FLAC MUSIC\DANCE CLUB HOUSE\MINISTRY OF SOUND\Ministry Of Sound - Funk The Disco\MOS-FTD - Mix - 02\19.First Choice Feat. Rochelle Fleming - Let No Man Put Asunder.wav
Peak level 98.8 %
Extraction speed 38.6 X
Track quality 100.0 %
Copy CRC 6836563C
Track not present in AccurateRip database
Copy OK
Track 20
Filename F:\FLAC MUSIC\DANCE CLUB HOUSE\MINISTRY OF SOUND\Ministry Of Sound - Funk The Disco\MOS-FTD - Mix - 02\20.Shannon - Let The Music Play.wav
Peak level 98.8 %
Extraction speed 37.6 X
Track quality 100.0 %
Copy CRC 1925583A
Track not present in AccurateRip database
Copy OK
None of the tracks are present in the AccurateRip database
No errors occurred
End of status report
---- CUETools DB Plugin V2.1.6
[CTDB TOCID: ZxIkJ3tCXue9M0CbVHdUAQnmHZ0-] found
Submit result: ZxIkJ3tCXue9M0CbVHdUAQnmHZ0- has been confirmed
Track | CTDB Status
1 | (6/6) Accurately ripped
2 | (6/6) Accurately ripped
3 | (6/6) Accurately ripped
4 | (6/6) Accurately ripped
5 | (6/6) Accurately ripped
6 | (6/6) Accurately ripped
7 | (6/6) Accurately ripped
8 | (6/6) Accurately ripped
9 | (6/6) Accurately ripped
10 | (6/6) Accurately ripped
11 | (6/6) Accurately ripped
12 | (6/6) Accurately ripped
13 | (6/6) Accurately ripped
14 | (6/6) Accurately ripped
15 | (6/6) Accurately ripped
16 | (6/6) Accurately ripped
17 | (6/6) Accurately ripped
18 | (6/6) Accurately ripped
19 | (6/6) Accurately ripped
20 | (6/6) Accurately ripped
Содержание индексной карты (.CUE)
 REM GENRE Soul/Funk
REM DATE 2016
REM DISCID 0D11D814
REM COMMENT "Exact Audio Copy v1.3"
PERFORMER "Various"
TITLE "Ministry Of Sound - Funk The Disco"
FILE "01.The Jacksons - Shake Your Body Down [To The Ground].flac" WAVE
TRACK 01 AUDIO
TITLE "Shake Your Body Down [To The Ground]"
PERFORMER "The Jacksons"
INDEX 01 00:00:00
FILE "02.Earth, Wind & Fire - September.flac" WAVE
TRACK 02 AUDIO
TITLE "September"
PERFORMER "Earth, Wind & Fire"
INDEX 01 00:00:00
FILE "03.Marvin Gaye - Got To Give It Up.flac" WAVE
TRACK 03 AUDIO
TITLE "Got To Give It Up"
PERFORMER "Marvin Gaye"
INDEX 01 00:00:00
FILE "04.Cameo - Word Up!.flac" WAVE
TRACK 04 AUDIO
TITLE "Word Up!"
PERFORMER "Cameo"
INDEX 01 00:00:00
FILE "05.James Brown - Get Up Offa That Thing.flac" WAVE
TRACK 05 AUDIO
TITLE "Get Up Offa That Thing"
PERFORMER "James Brown"
INDEX 01 00:00:00
FILE "06.Wild Cherry - Play That Funky Music.flac" WAVE
TRACK 06 AUDIO
TITLE "Play That Funky Music"
PERFORMER "Wild Cherry"
INDEX 01 00:00:00
FILE "07.Lipps Inc. - Funky Town.flac" WAVE
TRACK 07 AUDIO
TITLE "Funky Town"
PERFORMER "Lipps Inc."
INDEX 01 00:00:00
FILE "08.The O'Jays - Love Train.flac" WAVE
TRACK 08 AUDIO
TITLE "Love Train"
PERFORMER "The O'Jays"
INDEX 01 00:00:00
FILE "09.Rick James - Give It To Me Baby.flac" WAVE
TRACK 09 AUDIO
TITLE "Give It To Me Baby"
PERFORMER "Rick James"
INDEX 01 00:00:00
FILE "10.Commodores - Brick House.flac" WAVE
TRACK 10 AUDIO
TITLE "Brick House"
PERFORMER "Commodores"
INDEX 01 00:00:00
FILE "11.The Fatback Band - I Found Lovin'.flac" WAVE
TRACK 11 AUDIO
TITLE "I Found Lovin'"
PERFORMER "The Fatback Band"
INDEX 01 00:00:00
FILE "12.Average White Band - Pick Up The Pieces.flac" WAVE
TRACK 12 AUDIO
TITLE "Pick Up The Pieces"
PERFORMER "Average White Band"
INDEX 01 00:00:00
FILE "13.Roy Ayers - Love Will Bring Us Back Together Again.flac" WAVE
TRACK 13 AUDIO
TITLE "Love Will Bring Us Back Together Again"
PERFORMER "Roy Ayers"
INDEX 01 00:00:00
FILE "14.Kool & The Gang - Fresh.flac" WAVE
TRACK 14 AUDIO
TITLE "Fresh"
PERFORMER "Kool & The Gang"
INDEX 01 00:00:00
FILE "15.Heatwave - Boogie Nights.flac" WAVE
TRACK 15 AUDIO
TITLE "Boogie Nights"
PERFORMER "Heatwave"
INDEX 01 00:00:00
FILE "16.Anita Ward - Ring My Bell.flac" WAVE
TRACK 16 AUDIO
TITLE "Ring My Bell"
PERFORMER "Anita Ward"
INDEX 01 00:00:00
FILE "17.Peaches & Herb - Shake Your Groove Thing.flac" WAVE
TRACK 17 AUDIO
TITLE "Shake Your Groove Thing"
PERFORMER "Peaches & Herb"
INDEX 01 00:00:00
FILE "18.Booker Newbury III - Love Town.flac" WAVE
TRACK 18 AUDIO
TITLE "Love Town"
PERFORMER "Booker Newbury III"
INDEX 01 00:00:00
FILE "19.First Choice Feat. Rochelle Fleming - Let No Man Put Asunder.flac" WAVE
TRACK 19 AUDIO
TITLE "Let No Man Put Asunder"
PERFORMER "First Choice Feat. Rochelle Fleming"
INDEX 01 00:00:00
FILE "20.Shannon - Let The Music Play.flac" WAVE
TRACK 20 AUDIO
TITLE "Let The Music Play"
PERFORMER "Shannon"
INDEX 01 00:00:00
01.The Jacksons - Shake Your Body Down [To The Ground] - 00:03:36
02.Earth, Wind & Fire -
September - 00:03:37
03.Marvin Gaye - Got To Give It Up - 00:03:37
04.Cameo - Word Up! - 00:03:59
05.James Brown - Get Up Offa That Thing - 00:03:42
06.Wild Cherry - Play That Funky Music - 00:03:00
07.Lipps Inc. - Funky Town - 00:03:17
08.The O'Jays - Love Train - 00:02:47
09.Rick James - Give It To Me
Baby - 00:03:16
10.Commodores - Brick House - 00:02:49
11.The Fatback Band - I Found Lovin' - 00:03:33
12.Average White Band - Pick Up The Pieces - 00:03:55
13.Roy Ayers - Love Will Bring Us Back Together Again -
00:05:36
14.Kool & The Gang - Fresh - 00:03:41
15.Heatwave - Boogie Nights - 00:03:13
16.Anita Ward -
Ring My Bell - 00:03:21
17.Peaches & Herb - Shake Your Groove Thing - 00:06:28
18.Booker Newbury III -
Love Town - 00:05:03
19.First Choice Feat. Rochelle Fleming - Let No Man Put Asunder - 00:04:04
20.Shannon -
Let The Music Play - 00:03:24
Playing Time - 01:16:08
 Exact Audio Copy V1.3 from 2. September 2016
EAC extraction logfile from 10. December 2016, 8:23
Various / Ministry Of Sound - Funk The Disco
Used drive : HL-DT-STDVDRAM GSA-E40N Adapter: 1 ID: 0
Read mode : Secure
Utilize accurate stream : Yes
Defeat audio cache : No
Make use of C2 pointers : Yes
Read offset correction : 667
Overread into Lead-In and Lead-Out : No
Fill up missing offset samples with silence : Yes
Delete leading and trailing silent blocks : No
Null samples used in CRC calculations : Yes
Used interface : Native Win32 interface for Win NT & 2000
Gap handling : Not detected, thus appended to previous track
Used output format : User Defined Encoder
Selected bitrate : 896 kBit/s
Quality : High
Add ID3 tag : No
Command line compressor : C:\Program Files (x86)\Exact Audio Copy\FLAC\FLAC.EXE
Additional command line options : -6 -V -T "ARTIST=%artist%" -T "TITLE=%title%" -T "ALBUM=%albumtitle%" -T "DATE=%year%" -T "TRACKNUMBER=%tracknr%" -T "GENRE=%genre%" -T "COMMENT=%comment%" -T "BAND=%albuminterpret%" -T "ALBUMARTIST=%albuminterpret%" -T "COMPOSER=%composer%" %haslyrics%--tag-from-file=LYRICS="%lyricsfile%"%haslyrics% -T "DISCNUMBER=%cdnumber%" -T "TOTALDISCS=%totalcds%" -T "TOTALTRACKS=%numtracks%" %hascover%--picture="%coverfile%"%hascover% %source% -o %dest%
TOC of the extracted CD
Track | Start | Length | Start sector | End sector
---------------------------------------------------------
1 | 0:00.00 | 3:36.53 | 0 | 16252
2 | 3:36.53 | 3:37.41 | 16253 | 32568
3 | 7:14.19 | 3:37.53 | 32569 | 48896
4 | 10:51.72 | 3:59.09 | 48897 | 66830
5 | 14:51.06 | 3:42.17 | 66831 | 83497
6 | 18:33.23 | 3:00.71 | 83498 | 97068
7 | 21:34.19 | 3:17.03 | 97069 | 111846
8 | 24:51.22 | 2:47.40 | 111847 | 124411
9 | 27:38.62 | 3:16.16 | 124412 | 139127
10 | 30:55.03 | 2:49.46 | 139128 | 151848
11 | 33:44.49 | 3:33.33 | 151849 | 167856
12 | 37:18.07 | 3:55.14 | 167857 | 185495
13 | 41:13.21 | 5:36.29 | 185496 | 210724
14 | 46:49.50 | 3:41.50 | 210725 | 227349
15 | 50:31.25 | 3:13.66 | 227350 | 241890
16 | 53:45.16 | 3:21.17 | 241891 | 256982
17 | 57:06.33 | 6:28.35 | 256983 | 286117
18 | 63:34.68 | 5:03.70 | 286118 | 308912
19 | 68:38.63 | 4:04.57 | 308913 | 327269
20 | 72:43.45 | 3:24.74 | 327270 | 342643
Track 1
Filename F:\FLAC MUSIC\DANCE CLUB HOUSE\MINISTRY OF SOUND\Ministry Of Sound - Funk The Disco\MOS-FTD - Mix - 02\01.The Jacksons - Shake Your Body Down [To The Ground].wav
Peak level 98.8 %
Extraction speed 15.8 X
Track quality 99.9 %
Copy CRC 066CC8CD
Track not present in AccurateRip database
Copy OK
Track 2
Filename F:\FLAC MUSIC\DANCE CLUB HOUSE\MINISTRY OF SOUND\Ministry Of Sound - Funk The Disco\MOS-FTD - Mix - 02\02.Earth, Wind & Fire - September.wav
Peak level 98.8 %
Extraction speed 17.6 X
Track quality 100.0 %
Copy CRC 1E5800EC
Track not present in AccurateRip database
Copy OK
Track 3
Filename F:\FLAC MUSIC\DANCE CLUB HOUSE\MINISTRY OF SOUND\Ministry Of Sound - Funk The Disco\MOS-FTD - Mix - 02\03.Marvin Gaye - Got To Give It Up.wav
Peak level 98.8 %
Extraction speed 21.3 X
Track quality 100.0 %
Copy CRC E8E2B6A8
Track not present in AccurateRip database
Copy OK
Track 4
Filename F:\FLAC MUSIC\DANCE CLUB HOUSE\MINISTRY OF SOUND\Ministry Of Sound - Funk The Disco\MOS-FTD - Mix - 02\04.Cameo - Word Up!.wav
Peak level 98.8 %
Extraction speed 22.9 X
Track quality 100.0 %
Copy CRC 7FD6EA34
Track not present in AccurateRip database
Copy OK
Track 5
Filename F:\FLAC MUSIC\DANCE CLUB HOUSE\MINISTRY OF SOUND\Ministry Of Sound - Funk The Disco\MOS-FTD - Mix - 02\05.James Brown - Get Up Offa That Thing.wav
Peak level 98.8 %
Extraction speed 24.2 X
Track quality 100.0 %
Copy CRC 48147969
Track not present in AccurateRip database
Copy OK
Track 6
Filename F:\FLAC MUSIC\DANCE CLUB HOUSE\MINISTRY OF SOUND\Ministry Of Sound - Funk The Disco\MOS-FTD - Mix - 02\06.Wild Cherry - Play That Funky Music.wav
Peak level 98.8 %
Extraction speed 22.1 X
Track quality 100.0 %
Copy CRC 366DD0A4
Track not present in AccurateRip database
Copy OK
Track 7
Filename F:\FLAC MUSIC\DANCE CLUB HOUSE\MINISTRY OF SOUND\Ministry Of Sound - Funk The Disco\MOS-FTD - Mix - 02\07.Lipps Inc. - Funky Town.wav
Peak level 98.8 %
Extraction speed 26.4 X
Track quality 100.0 %
Copy CRC 2BABF7BA
Track not present in AccurateRip database
Copy OK
Track 8
Filename F:\FLAC MUSIC\DANCE CLUB HOUSE\MINISTRY OF SOUND\Ministry Of Sound - Funk The Disco\MOS-FTD - Mix - 02\08.The O’Jays - Love Train.wav
Peak level 98.8 %
Extraction speed 23.6 X
Track quality 100.0 %
Copy CRC ED1DB36A
Track not present in AccurateRip database
Copy OK
Track 9
Filename F:\FLAC MUSIC\DANCE CLUB HOUSE\MINISTRY OF SOUND\Ministry Of Sound - Funk The Disco\MOS-FTD - Mix - 02\09.Rick James - Give It To Me Baby.wav
Peak level 98.8 %
Extraction speed 24.1 X
Track quality 100.0 %
Copy CRC C686F81F
Track not present in AccurateRip database
Copy OK
Track 10
Filename F:\FLAC MUSIC\DANCE CLUB HOUSE\MINISTRY OF SOUND\Ministry Of Sound - Funk The Disco\MOS-FTD - Mix - 02\10.Commodores - Brick House.wav
Peak level 98.8 %
Extraction speed 29.0 X
Track quality 100.0 %
Copy CRC DE646966
Track not present in AccurateRip database
Copy OK
Track 11
Filename F:\FLAC MUSIC\DANCE CLUB HOUSE\MINISTRY OF SOUND\Ministry Of Sound - Funk The Disco\MOS-FTD - Mix - 02\11.The Fatback Band - I Found Lovin'.wav
Peak level 98.8 %
Extraction speed 26.7 X
Track quality 100.0 %
Copy CRC B43D081B
Track not present in AccurateRip database
Copy OK
Track 12
Filename F:\FLAC MUSIC\DANCE CLUB HOUSE\MINISTRY OF SOUND\Ministry Of Sound - Funk The Disco\MOS-FTD - Mix - 02\12.Average White Band - Pick Up The Pieces.wav
Peak level 98.8 %
Extraction speed 25.8 X
Track quality 99.9 %
Copy CRC 251B2C34
Track not present in AccurateRip database
Copy OK
Track 13
Filename F:\FLAC MUSIC\DANCE CLUB HOUSE\MINISTRY OF SOUND\Ministry Of Sound - Funk The Disco\MOS-FTD - Mix - 02\13.Roy Ayers - Love Will Bring Us Back Together Again.wav
Peak level 98.8 %
Extraction speed 28.6 X
Track quality 100.0 %
Copy CRC 411166E5
Track not present in AccurateRip database
Copy OK
Track 14
Filename F:\FLAC MUSIC\DANCE CLUB HOUSE\MINISTRY OF SOUND\Ministry Of Sound - Funk The Disco\MOS-FTD - Mix - 02\14.Kool & The Gang - Fresh.wav
Peak level 98.8 %
Extraction speed 29.0 X
Track quality 100.0 %
Copy CRC 2B2AC6C5
Track not present in AccurateRip database
Copy OK
Track 15
Filename F:\FLAC MUSIC\DANCE CLUB HOUSE\MINISTRY OF SOUND\Ministry Of Sound - Funk The Disco\MOS-FTD - Mix - 02\15.Heatwave - Boogie Nights.wav
Peak level 98.8 %
Extraction speed 34.3 X
Track quality 100.0 %
Copy CRC FFDFBAC4
Track not present in AccurateRip database
Copy OK
Track 16
Filename F:\FLAC MUSIC\DANCE CLUB HOUSE\MINISTRY OF SOUND\Ministry Of Sound - Funk The Disco\MOS-FTD - Mix - 02\16.Anita Ward - Ring My Bell.wav
Peak level 98.8 %
Extraction speed 29.5 X
Track quality 100.0 %
Copy CRC C5BF9D42
Track not present in AccurateRip database
Copy OK
Track 17
Filename F:\FLAC MUSIC\DANCE CLUB HOUSE\MINISTRY OF SOUND\Ministry Of Sound - Funk The Disco\MOS-FTD - Mix - 02\17.Peaches & Herb - Shake Your Groove Thing.wav
Peak level 98.8 %
Extraction speed 32.0 X
Track quality 99.9 %
Copy CRC 801015D1
Track not present in AccurateRip database
Copy OK
Track 18
Filename F:\FLAC MUSIC\DANCE CLUB HOUSE\MINISTRY OF SOUND\Ministry Of Sound - Funk The Disco\MOS-FTD - Mix - 02\18.Booker Newbury III - Love Town.wav
Peak level 98.8 %
Extraction speed 32.5 X
Track quality 100.0 %
Copy CRC 92E4C3D1
Track not present in AccurateRip database
Copy OK
Track 19
Filename F:\FLAC MUSIC\DANCE CLUB HOUSE\MINISTRY OF SOUND\Ministry Of Sound - Funk The Disco\MOS-FTD - Mix - 02\19.First Choice Feat. Rochelle Fleming - Let No Man Put Asunder.wav
Peak level 98.8 %
Extraction speed 38.6 X
Track quality 100.0 %
Copy CRC 6836563C
Track not present in AccurateRip database
Copy OK
Track 20
Filename F:\FLAC MUSIC\DANCE CLUB HOUSE\MINISTRY OF SOUND\Ministry Of Sound - Funk The Disco\MOS-FTD - Mix - 02\20.Shannon - Let The Music Play.wav
Peak level 98.8 %
Extraction speed 37.6 X
Track quality 100.0 %
Copy CRC 1925583A
Track not present in AccurateRip database
Copy OK
None of the tracks are present in the AccurateRip database
No errors occurred
End of status report
---- CUETools DB Plugin V2.1.6
[CTDB TOCID: ZxIkJ3tCXue9M0CbVHdUAQnmHZ0-] found
Submit result: ZxIkJ3tCXue9M0CbVHdUAQnmHZ0- has been confirmed
Track | CTDB Status
1 | (6/6) Accurately ripped
2 | (6/6) Accurately ripped
3 | (6/6) Accurately ripped
4 | (6/6) Accurately ripped
5 | (6/6) Accurately ripped
6 | (6/6) Accurately ripped
7 | (6/6) Accurately ripped
8 | (6/6) Accurately ripped
9 | (6/6) Accurately ripped
10 | (6/6) Accurately ripped
11 | (6/6) Accurately ripped
12 | (6/6) Accurately ripped
13 | (6/6) Accurately ripped
14 | (6/6) Accurately ripped
15 | (6/6) Accurately ripped
16 | (6/6) Accurately ripped
17 | (6/6) Accurately ripped
18 | (6/6) Accurately ripped
19 | (6/6) Accurately ripped
20 | (6/6) Accurately ripped
 REM GENRE Soul/Funk
REM DATE 2016
REM DISCID 0D11D814
REM COMMENT "Exact Audio Copy v1.3"
PERFORMER "Various"
TITLE "Ministry Of Sound - Funk The Disco"
FILE "01.The Jacksons - Shake Your Body Down [To The Ground].flac" WAVE
TRACK 01 AUDIO
TITLE "Shake Your Body Down [To The Ground]"
PERFORMER "The Jacksons"
INDEX 01 00:00:00
FILE "02.Earth, Wind & Fire - September.flac" WAVE
TRACK 02 AUDIO
TITLE "September"
PERFORMER "Earth, Wind & Fire"
INDEX 01 00:00:00
FILE "03.Marvin Gaye - Got To Give It Up.flac" WAVE
TRACK 03 AUDIO
TITLE "Got To Give It Up"
PERFORMER "Marvin Gaye"
INDEX 01 00:00:00
FILE "04.Cameo - Word Up!.flac" WAVE
TRACK 04 AUDIO
TITLE "Word Up!"
PERFORMER "Cameo"
INDEX 01 00:00:00
FILE "05.James Brown - Get Up Offa That Thing.flac" WAVE
TRACK 05 AUDIO
TITLE "Get Up Offa That Thing"
PERFORMER "James Brown"
INDEX 01 00:00:00
FILE "06.Wild Cherry - Play That Funky Music.flac" WAVE
TRACK 06 AUDIO
TITLE "Play That Funky Music"
PERFORMER "Wild Cherry"
INDEX 01 00:00:00
FILE "07.Lipps Inc. - Funky Town.flac" WAVE
TRACK 07 AUDIO
TITLE "Funky Town"
PERFORMER "Lipps Inc."
INDEX 01 00:00:00
FILE "08.The O'Jays - Love Train.flac" WAVE
TRACK 08 AUDIO
TITLE "Love Train"
PERFORMER "The O'Jays"
INDEX 01 00:00:00
FILE "09.Rick James - Give It To Me Baby.flac" WAVE
TRACK 09 AUDIO
TITLE "Give It To Me Baby"
PERFORMER "Rick James"
INDEX 01 00:00:00
FILE "10.Commodores - Brick House.flac" WAVE
TRACK 10 AUDIO
TITLE "Brick House"
PERFORMER "Commodores"
INDEX 01 00:00:00
FILE "11.The Fatback Band - I Found Lovin'.flac" WAVE
TRACK 11 AUDIO
TITLE "I Found Lovin'"
PERFORMER "The Fatback Band"
INDEX 01 00:00:00
FILE "12.Average White Band - Pick Up The Pieces.flac" WAVE
TRACK 12 AUDIO
TITLE "Pick Up The Pieces"
PERFORMER "Average White Band"
INDEX 01 00:00:00
FILE "13.Roy Ayers - Love Will Bring Us Back Together Again.flac" WAVE
TRACK 13 AUDIO
TITLE "Love Will Bring Us Back Together Again"
PERFORMER "Roy Ayers"
INDEX 01 00:00:00
FILE "14.Kool & The Gang - Fresh.flac" WAVE
TRACK 14 AUDIO
TITLE "Fresh"
PERFORMER "Kool & The Gang"
INDEX 01 00:00:00
FILE "15.Heatwave - Boogie Nights.flac" WAVE
TRACK 15 AUDIO
TITLE "Boogie Nights"
PERFORMER "Heatwave"
INDEX 01 00:00:00
FILE "16.Anita Ward - Ring My Bell.flac" WAVE
TRACK 16 AUDIO
TITLE "Ring My Bell"
PERFORMER "Anita Ward"
INDEX 01 00:00:00
FILE "17.Peaches & Herb - Shake Your Groove Thing.flac" WAVE
TRACK 17 AUDIO
TITLE "Shake Your Groove Thing"
PERFORMER "Peaches & Herb"
INDEX 01 00:00:00
FILE "18.Booker Newbury III - Love Town.flac" WAVE
TRACK 18 AUDIO
TITLE "Love Town"
PERFORMER "Booker Newbury III"
INDEX 01 00:00:00
FILE "19.First Choice Feat. Rochelle Fleming - Let No Man Put Asunder.flac" WAVE
TRACK 19 AUDIO
TITLE "Let No Man Put Asunder"
PERFORMER "First Choice Feat. Rochelle Fleming"
INDEX 01 00:00:00
FILE "20.Shannon - Let The Music Play.flac" WAVE
TRACK 20 AUDIO
TITLE "Let The Music Play"
PERFORMER "Shannon"
INDEX 01 00:00:00
Tracklist:
01.Alexander
O'Neal - Criticize - 00:03:49
02.The Emotions - Best Of My Love - 00:03:19
03.Evelyn 'Champagne' King - I'm In
Love - 00:03:04
04.Gwen Guthrie - Ain't Nothin' Goin' On But The Rent - 00:04:16
05.Odyssey - Going Back To My
Roots - 00:03:24
06.Mary Jane Girls - All Night Long - 00:03:07
07.'D' Train - You're The One For Me -
00:04:03
08.Gwen McCrae - Keep The Fire Burning - 00:05:36
09.A Taste Of Honey - Boogie Oogie Oogie -
00:02:54
10.The S.O.S. Band - Take Your Time [Do It Right] - 00:02:50
11.Jocelyn Brown - Somebody Else's Guy -
00:03:45
12.Tom Browne - Funkin' For Jamaica - 00:02:57
13.Mac Band - Roses Are Red - 00:03:49
14.Gladys
Knight & The Pips - Bourgie' ,Bourgie - 00:03:31
15.Midnight Star - Midas Touch - 00:03:40
16.Change -
Change Of Heart - 00:03:32
17.Cherelle With Alexander O'Neal - Saturday Love - 00:04:17
18.Sharon Brown - I
Specialize In Love - 00:03:31
19.Imagination - Just An Illusion - 00:04:01
20.The Jones Girls - Nights Over
Egypt - 00:03:48
Playing Time - 01:13:22
Лог создания рипа
 Exact Audio Copy V1.3 from 2. September 2016
EAC extraction logfile from 10. December 2016, 9:41
Various / Ministry Of Sound - Funk The Disco
Used drive : HL-DT-STDVDRAM GSA-E40N Adapter: 1 ID: 0
Read mode : Secure
Utilize accurate stream : Yes
Defeat audio cache : No
Make use of C2 pointers : Yes
Read offset correction : 667
Overread into Lead-In and Lead-Out : No
Fill up missing offset samples with silence : Yes
Delete leading and trailing silent blocks : No
Null samples used in CRC calculations : Yes
Used interface : Native Win32 interface for Win NT & 2000
Gap handling : Not detected, thus appended to previous track
Used output format : User Defined Encoder
Selected bitrate : 896 kBit/s
Quality : High
Add ID3 tag : No
Command line compressor : C:\Program Files (x86)\Exact Audio Copy\FLAC\FLAC.EXE
Additional command line options : -6 -V -T "ARTIST=%artist%" -T "TITLE=%title%" -T "ALBUM=%albumtitle%" -T "DATE=%year%" -T "TRACKNUMBER=%tracknr%" -T "GENRE=%genre%" -T "COMMENT=%comment%" -T "BAND=%albuminterpret%" -T "ALBUMARTIST=%albuminterpret%" -T "COMPOSER=%composer%" %haslyrics%--tag-from-file=LYRICS="%lyricsfile%"%haslyrics% -T "DISCNUMBER=%cdnumber%" -T "TOTALDISCS=%totalcds%" -T "TOTALTRACKS=%numtracks%" %hascover%--picture="%coverfile%"%hascover% %source% -o %dest%
TOC of the extracted CD
Track | Start | Length | Start sector | End sector
---------------------------------------------------------
1 | 0:00.00 | 3:49.38 | 0 | 17212
2 | 3:49.38 | 3:19.45 | 17213 | 32182
3 | 7:09.08 | 3:04.69 | 32183 | 46051
4 | 10:14.02 | 4:16.39 | 46052 | 65290
5 | 14:30.41 | 3:24.22 | 65291 | 80612
6 | 17:54.63 | 3:07.52 | 80613 | 94689
7 | 21:02.40 | 4:03.67 | 94690 | 112981
8 | 25:06.32 | 5:36.20 | 112982 | 138201
9 | 30:42.52 | 2:54.46 | 138202 | 151297
10 | 33:37.23 | 2:50.59 | 151298 | 164106
11 | 36:28.07 | 3:45.28 | 164107 | 181009
12 | 40:13.35 | 2:57.35 | 181010 | 194319
13 | 43:10.70 | 3:49.15 | 194320 | 211509
14 | 47:00.10 | 3:31.35 | 211510 | 227369
15 | 50:31.45 | 3:40.51 | 227370 | 243920
16 | 54:12.21 | 3:32.07 | 243921 | 259827
17 | 57:44.28 | 4:17.09 | 259828 | 279111
18 | 62:01.37 | 3:31.23 | 279112 | 294959
19 | 65:32.60 | 4:01.28 | 294960 | 313062
20 | 69:34.13 | 3:48.26 | 313063 | 330188
Track 1
Filename F:\FLAC MUSIC\DANCE CLUB HOUSE\MINISTRY OF SOUND\Ministry Of Sound - Funk The Disco\MOS-FTD - Mix - 03\01.Alexander O’Neal - Criticize.wav
Peak level 98.8 %
Extraction speed 18.0 X
Track quality 100.0 %
Copy CRC 8BE3454C
Track not present in AccurateRip database
Copy OK
Track 2
Filename F:\FLAC MUSIC\DANCE CLUB HOUSE\MINISTRY OF SOUND\Ministry Of Sound - Funk The Disco\MOS-FTD - Mix - 03\02.The Emotions - Best Of My Love.wav
Peak level 98.8 %
Extraction speed 20.3 X
Track quality 100.0 %
Copy CRC 5285C38C
Track not present in AccurateRip database
Copy OK
Track 3
Filename F:\FLAC MUSIC\DANCE CLUB HOUSE\MINISTRY OF SOUND\Ministry Of Sound - Funk The Disco\MOS-FTD - Mix - 03\03.Evelyn 'Champagne' King - I'm In Love.wav
Peak level 98.8 %
Extraction speed 21.4 X
Track quality 100.0 %
Copy CRC 46D9434A
Track not present in AccurateRip database
Copy OK
Track 4
Filename F:\FLAC MUSIC\DANCE CLUB HOUSE\MINISTRY OF SOUND\Ministry Of Sound - Funk The Disco\MOS-FTD - Mix - 03\04.Gwen Guthrie - Ain't Nothin' Goin' On But The Rent.wav
Peak level 98.8 %
Extraction speed 20.1 X
Track quality 99.9 %
Copy CRC ABBE8A50
Track not present in AccurateRip database
Copy OK
Track 5
Filename F:\FLAC MUSIC\DANCE CLUB HOUSE\MINISTRY OF SOUND\Ministry Of Sound - Funk The Disco\MOS-FTD - Mix - 03\05.Odyssey - Going Back To My Roots.wav
Peak level 98.8 %
Extraction speed 20.0 X
Track quality 99.8 %
Copy CRC 42EAA2DB
Track not present in AccurateRip database
Copy OK
Track 6
Filename F:\FLAC MUSIC\DANCE CLUB HOUSE\MINISTRY OF SOUND\Ministry Of Sound - Funk The Disco\MOS-FTD - Mix - 03\06.Mary Jane Girls - All Night Long.wav
Peak level 98.8 %
Extraction speed 20.5 X
Track quality 99.8 %
Copy CRC 736753DA
Track not present in AccurateRip database
Copy OK
Track 7
Filename F:\FLAC MUSIC\DANCE CLUB HOUSE\MINISTRY OF SOUND\Ministry Of Sound - Funk The Disco\MOS-FTD - Mix - 03\07.'D' Train - You're The One For Me.wav
Peak level 98.8 %
Extraction speed 26.0 X
Track quality 100.0 %
Copy CRC 4EC955E4
Track not present in AccurateRip database
Copy OK
Track 8
Filename F:\FLAC MUSIC\DANCE CLUB HOUSE\MINISTRY OF SOUND\Ministry Of Sound - Funk The Disco\MOS-FTD - Mix - 03\08.Gwen McCrae - Keep The Fire Burning.wav
Peak level 98.8 %
Extraction speed 27.2 X
Track quality 100.0 %
Copy CRC BA6B8855
Track not present in AccurateRip database
Copy OK
Track 9
Filename F:\FLAC MUSIC\DANCE CLUB HOUSE\MINISTRY OF SOUND\Ministry Of Sound - Funk The Disco\MOS-FTD - Mix - 03\09.A Taste Of Honey - Boogie Oogie Oogie.wav
Peak level 98.8 %
Extraction speed 23.7 X
Track quality 99.8 %
Copy CRC 3139CE46
Track not present in AccurateRip database
Copy OK
Track 10
Filename F:\FLAC MUSIC\DANCE CLUB HOUSE\MINISTRY OF SOUND\Ministry Of Sound - Funk The Disco\MOS-FTD - Mix - 03\10.The S.O.S. Band - Take Your Time [Do It Right].wav
Peak level 98.8 %
Extraction speed 23.7 X
Track quality 99.8 %
Copy CRC 6B3BC2B6
Track not present in AccurateRip database
Copy OK
Track 11
Filename F:\FLAC MUSIC\DANCE CLUB HOUSE\MINISTRY OF SOUND\Ministry Of Sound - Funk The Disco\MOS-FTD - Mix - 03\11.Jocelyn Brown - Somebody Else's Guy.wav
Peak level 98.8 %
Extraction speed 30.5 X
Track quality 100.0 %
Copy CRC DC325BC6
Track not present in AccurateRip database
Copy OK
Track 12
Filename F:\FLAC MUSIC\DANCE CLUB HOUSE\MINISTRY OF SOUND\Ministry Of Sound - Funk The Disco\MOS-FTD - Mix - 03\12.Tom Browne - Funkin' For Jamaica.wav
Peak level 98.8 %
Extraction speed 27.7 X
Track quality 100.0 %
Copy CRC 1CBBC87E
Track not present in AccurateRip database
Copy OK
Track 13
Filename F:\FLAC MUSIC\DANCE CLUB HOUSE\MINISTRY OF SOUND\Ministry Of Sound - Funk The Disco\MOS-FTD - Mix - 03\13.Mac Band - Roses Are Red.wav
Peak level 98.8 %
Extraction speed 31.6 X
Track quality 100.0 %
Copy CRC 79E023EC
Track not present in AccurateRip database
Copy OK
Track 14
Filename F:\FLAC MUSIC\DANCE CLUB HOUSE\MINISTRY OF SOUND\Ministry Of Sound - Funk The Disco\MOS-FTD - Mix - 03\14.Gladys Knight & The Pips - Bourgie' ,Bourgie.wav
Peak level 98.8 %
Extraction speed 29.2 X
Track quality 100.0 %
Copy CRC 111E72EC
Track not present in AccurateRip database
Copy OK
Track 15
Filename F:\FLAC MUSIC\DANCE CLUB HOUSE\MINISTRY OF SOUND\Ministry Of Sound - Funk The Disco\MOS-FTD - Mix - 03\15.Midnight Star - Midas Touch.wav
Peak level 98.8 %
Extraction speed 29.6 X
Track quality 100.0 %
Copy CRC 561DB7AC
Track not present in AccurateRip database
Copy OK
Track 16
Filename F:\FLAC MUSIC\DANCE CLUB HOUSE\MINISTRY OF SOUND\Ministry Of Sound - Funk The Disco\MOS-FTD - Mix - 03\16.Change - Change Of Heart.wav
Peak level 98.8 %
Extraction speed 30.2 X
Track quality 100.0 %
Copy CRC 31A7E813
Track not present in AccurateRip database
Copy OK
Track 17
Filename F:\FLAC MUSIC\DANCE CLUB HOUSE\MINISTRY OF SOUND\Ministry Of Sound - Funk The Disco\MOS-FTD - Mix - 03\17.Cherelle With Alexander O’Neal - Saturday Love.wav
Peak level 98.8 %
Extraction speed 31.2 X
Track quality 100.0 %
Copy CRC 5E62097C
Track not present in AccurateRip database
Copy OK
Track 18
Filename F:\FLAC MUSIC\DANCE CLUB HOUSE\MINISTRY OF SOUND\Ministry Of Sound - Funk The Disco\MOS-FTD - Mix - 03\18.Sharon Brown - I Specialize In Love.wav
Peak level 98.8 %
Extraction speed 36.8 X
Track quality 100.0 %
Copy CRC 6A9B3384
Track not present in AccurateRip database
Copy OK
Track 19
Filename F:\FLAC MUSIC\DANCE CLUB HOUSE\MINISTRY OF SOUND\Ministry Of Sound - Funk The Disco\MOS-FTD - Mix - 03\19.Imagination - Just An Illusion.wav
Peak level 98.8 %
Extraction speed 37.9 X
Track quality 100.0 %
Copy CRC 231208BE
Track not present in AccurateRip database
Copy OK
Track 20
Filename F:\FLAC MUSIC\DANCE CLUB HOUSE\MINISTRY OF SOUND\Ministry Of Sound - Funk The Disco\MOS-FTD - Mix - 03\20.The Jones Girls - Nights Over Egypt.wav
Peak level 98.8 %
Extraction speed 34.3 X
Track quality 100.0 %
Copy CRC 44C934CD
Track not present in AccurateRip database
Copy OK
None of the tracks are present in the AccurateRip database
No errors occurred
End of status report
---- CUETools DB Plugin V2.1.6
[CTDB TOCID: 2f8eIyw60a8TAUnN8JLOdrWQxoo-] found
Submit result: 2f8eIyw60a8TAUnN8JLOdrWQxoo- has been confirmed
Track | CTDB Status
1 | (6/6) Accurately ripped
2 | (6/6) Accurately ripped
3 | (6/6) Accurately ripped
4 | (6/6) Accurately ripped
5 | (6/6) Accurately ripped
6 | (6/6) Accurately ripped
7 | (6/6) Accurately ripped
8 | (6/6) Accurately ripped
9 | (6/6) Accurately ripped
10 | (6/6) Accurately ripped
11 | (6/6) Accurately ripped
12 | (6/6) Accurately ripped
13 | (6/6) Accurately ripped
14 | (6/6) Accurately ripped
15 | (6/6) Accurately ripped
16 | (6/6) Accurately ripped
17 | (6/6) Accurately ripped
18 | (6/6) Accurately ripped
19 | (6/6) Accurately ripped
20 | (6/6) Accurately ripped
Содержание индексной карты (.CUE)
 REM GENRE Soul/Funk
REM DATE 2016
REM DISCID 0B113214
REM COMMENT "Exact Audio Copy v1.3"
PERFORMER "Various"
TITLE "Ministry Of Sound - Funk The Disco "
FILE "01.Alexander O'Neal - Criticize.flac" WAVE
TRACK 01 AUDIO
TITLE "Criticize"
PERFORMER "Alexander O'Neal"
INDEX 01 00:00:00
FILE "02.The Emotions - Best Of My Love.flac" WAVE
TRACK 02 AUDIO
TITLE "Best Of My Love"
PERFORMER "The Emotions"
INDEX 01 00:00:00
FILE "03.Evelyn 'Champagne' King - I'm In Love.flac" WAVE
TRACK 03 AUDIO
TITLE "I'm In Love"
PERFORMER "Evelyn 'Champagne' King"
INDEX 01 00:00:00
FILE "04.Gwen Guthrie - Ain't Nothin' Goin' On But The Rent.flac" WAVE
TRACK 04 AUDIO
TITLE "Ain't Nothin' Goin' On But The Rent"
PERFORMER "Gwen Guthrie"
INDEX 01 00:00:00
FILE "05.Odyssey - Going Back To My Roots.flac" WAVE
TRACK 05 AUDIO
TITLE "Going Back To My Roots"
PERFORMER "Odyssey"
INDEX 01 00:00:00
FILE "06.Mary Jane Girls - All Night Long.flac" WAVE
TRACK 06 AUDIO
TITLE "All Night Long"
PERFORMER "Mary Jane Girls"
INDEX 01 00:00:00
FILE "07.'D' Train - You're The One For Me.flac" WAVE
TRACK 07 AUDIO
TITLE "You're The One For Me"
PERFORMER "'D' Train"
INDEX 01 00:00:00
FILE "08.Gwen McCrae - Keep The Fire Burning.flac" WAVE
TRACK 08 AUDIO
TITLE "Keep The Fire Burning"
PERFORMER "Gwen McCrae"
INDEX 01 00:00:00
FILE "09.A Taste Of Honey - Boogie Oogie Oogie.flac" WAVE
TRACK 09 AUDIO
TITLE "Boogie Oogie Oogie"
PERFORMER "A Taste Of Honey"
INDEX 01 00:00:00
FILE "10.The S.O.S. Band - Take Your Time [Do It Right].flac" WAVE
TRACK 10 AUDIO
TITLE "Take Your Time [Do It Right]"
PERFORMER "The S.O.S. Band"
INDEX 01 00:00:00
FILE "11.Jocelyn Brown - Somebody Else's Guy.flac" WAVE
TRACK 11 AUDIO
TITLE "Somebody Else's Guy"
PERFORMER "Jocelyn Brown"
INDEX 01 00:00:00
FILE "12.Tom Browne - Funkin' For Jamaica.flac" WAVE
TRACK 12 AUDIO
TITLE "Funkin' For Jamaica"
PERFORMER "Tom Browne"
INDEX 01 00:00:00
FILE "13.Mac Band - Roses Are Red.flac" WAVE
TRACK 13 AUDIO
TITLE "Roses Are Red"
PERFORMER "Mac Band"
INDEX 01 00:00:00
FILE "14.Gladys Knight & The Pips - Bourgie' ,Bourgie.flac" WAVE
TRACK 14 AUDIO
TITLE "Bourgie' ,Bourgie"
PERFORMER "Gladys Knight & The Pips"
INDEX 01 00:00:00
FILE "15.Midnight Star - Midas Touch.flac" WAVE
TRACK 15 AUDIO
TITLE "Midas Touch"
PERFORMER "Midnight Star"
INDEX 01 00:00:00
FILE "16.Change - Change Of Heart.flac" WAVE
TRACK 16 AUDIO
TITLE "Change Of Heart"
PERFORMER "Change"
INDEX 01 00:00:00
FILE "17.Cherelle With Alexander O'Neal - Saturday Love.flac" WAVE
TRACK 17 AUDIO
TITLE "Saturday Love"
PERFORMER "Cherelle With Alexander O'Neal"
INDEX 01 00:00:00
FILE "18.Sharon Brown - I Specialize In Love.flac" WAVE
TRACK 18 AUDIO
TITLE "I Specialize In Love"
PERFORMER "Sharon Brown"
INDEX 01 00:00:00
FILE "19.Imagination - Just An Illusion.flac" WAVE
TRACK 19 AUDIO
TITLE "Just An Illusion"
PERFORMER "Imagination"
INDEX 01 00:00:00
FILE "20.The Jones Girls - Nights Over Egypt.flac" WAVE
TRACK 20 AUDIO
TITLE "Nights Over Egypt"
PERFORMER "The Jones Girls"
INDEX 01 00:00:00
01.Alexander
O'Neal - Criticize - 00:03:49
02.The Emotions - Best Of My Love - 00:03:19
03.Evelyn 'Champagne' King - I'm In
Love - 00:03:04
04.Gwen Guthrie - Ain't Nothin' Goin' On But The Rent - 00:04:16
05.Odyssey - Going Back To My
Roots - 00:03:24
06.Mary Jane Girls - All Night Long - 00:03:07
07.'D' Train - You're The One For Me -
00:04:03
08.Gwen McCrae - Keep The Fire Burning - 00:05:36
09.A Taste Of Honey - Boogie Oogie Oogie -
00:02:54
10.The S.O.S. Band - Take Your Time [Do It Right] - 00:02:50
11.Jocelyn Brown - Somebody Else's Guy -
00:03:45
12.Tom Browne - Funkin' For Jamaica - 00:02:57
13.Mac Band - Roses Are Red - 00:03:49
14.Gladys
Knight & The Pips - Bourgie' ,Bourgie - 00:03:31
15.Midnight Star - Midas Touch - 00:03:40
16.Change -
Change Of Heart - 00:03:32
17.Cherelle With Alexander O'Neal - Saturday Love - 00:04:17
18.Sharon Brown - I
Specialize In Love - 00:03:31
19.Imagination - Just An Illusion - 00:04:01
20.The Jones Girls - Nights Over
Egypt - 00:03:48
Playing Time - 01:13:22
 Exact Audio Copy V1.3 from 2. September 2016
EAC extraction logfile from 10. December 2016, 9:41
Various / Ministry Of Sound - Funk The Disco
Used drive : HL-DT-STDVDRAM GSA-E40N Adapter: 1 ID: 0
Read mode : Secure
Utilize accurate stream : Yes
Defeat audio cache : No
Make use of C2 pointers : Yes
Read offset correction : 667
Overread into Lead-In and Lead-Out : No
Fill up missing offset samples with silence : Yes
Delete leading and trailing silent blocks : No
Null samples used in CRC calculations : Yes
Used interface : Native Win32 interface for Win NT & 2000
Gap handling : Not detected, thus appended to previous track
Used output format : User Defined Encoder
Selected bitrate : 896 kBit/s
Quality : High
Add ID3 tag : No
Command line compressor : C:\Program Files (x86)\Exact Audio Copy\FLAC\FLAC.EXE
Additional command line options : -6 -V -T "ARTIST=%artist%" -T "TITLE=%title%" -T "ALBUM=%albumtitle%" -T "DATE=%year%" -T "TRACKNUMBER=%tracknr%" -T "GENRE=%genre%" -T "COMMENT=%comment%" -T "BAND=%albuminterpret%" -T "ALBUMARTIST=%albuminterpret%" -T "COMPOSER=%composer%" %haslyrics%--tag-from-file=LYRICS="%lyricsfile%"%haslyrics% -T "DISCNUMBER=%cdnumber%" -T "TOTALDISCS=%totalcds%" -T "TOTALTRACKS=%numtracks%" %hascover%--picture="%coverfile%"%hascover% %source% -o %dest%
TOC of the extracted CD
Track | Start | Length | Start sector | End sector
---------------------------------------------------------
1 | 0:00.00 | 3:49.38 | 0 | 17212
2 | 3:49.38 | 3:19.45 | 17213 | 32182
3 | 7:09.08 | 3:04.69 | 32183 | 46051
4 | 10:14.02 | 4:16.39 | 46052 | 65290
5 | 14:30.41 | 3:24.22 | 65291 | 80612
6 | 17:54.63 | 3:07.52 | 80613 | 94689
7 | 21:02.40 | 4:03.67 | 94690 | 112981
8 | 25:06.32 | 5:36.20 | 112982 | 138201
9 | 30:42.52 | 2:54.46 | 138202 | 151297
10 | 33:37.23 | 2:50.59 | 151298 | 164106
11 | 36:28.07 | 3:45.28 | 164107 | 181009
12 | 40:13.35 | 2:57.35 | 181010 | 194319
13 | 43:10.70 | 3:49.15 | 194320 | 211509
14 | 47:00.10 | 3:31.35 | 211510 | 227369
15 | 50:31.45 | 3:40.51 | 227370 | 243920
16 | 54:12.21 | 3:32.07 | 243921 | 259827
17 | 57:44.28 | 4:17.09 | 259828 | 279111
18 | 62:01.37 | 3:31.23 | 279112 | 294959
19 | 65:32.60 | 4:01.28 | 294960 | 313062
20 | 69:34.13 | 3:48.26 | 313063 | 330188
Track 1
Filename F:\FLAC MUSIC\DANCE CLUB HOUSE\MINISTRY OF SOUND\Ministry Of Sound - Funk The Disco\MOS-FTD - Mix - 03\01.Alexander O’Neal - Criticize.wav
Peak level 98.8 %
Extraction speed 18.0 X
Track quality 100.0 %
Copy CRC 8BE3454C
Track not present in AccurateRip database
Copy OK
Track 2
Filename F:\FLAC MUSIC\DANCE CLUB HOUSE\MINISTRY OF SOUND\Ministry Of Sound - Funk The Disco\MOS-FTD - Mix - 03\02.The Emotions - Best Of My Love.wav
Peak level 98.8 %
Extraction speed 20.3 X
Track quality 100.0 %
Copy CRC 5285C38C
Track not present in AccurateRip database
Copy OK
Track 3
Filename F:\FLAC MUSIC\DANCE CLUB HOUSE\MINISTRY OF SOUND\Ministry Of Sound - Funk The Disco\MOS-FTD - Mix - 03\03.Evelyn 'Champagne' King - I'm In Love.wav
Peak level 98.8 %
Extraction speed 21.4 X
Track quality 100.0 %
Copy CRC 46D9434A
Track not present in AccurateRip database
Copy OK
Track 4
Filename F:\FLAC MUSIC\DANCE CLUB HOUSE\MINISTRY OF SOUND\Ministry Of Sound - Funk The Disco\MOS-FTD - Mix - 03\04.Gwen Guthrie - Ain't Nothin' Goin' On But The Rent.wav
Peak level 98.8 %
Extraction speed 20.1 X
Track quality 99.9 %
Copy CRC ABBE8A50
Track not present in AccurateRip database
Copy OK
Track 5
Filename F:\FLAC MUSIC\DANCE CLUB HOUSE\MINISTRY OF SOUND\Ministry Of Sound - Funk The Disco\MOS-FTD - Mix - 03\05.Odyssey - Going Back To My Roots.wav
Peak level 98.8 %
Extraction speed 20.0 X
Track quality 99.8 %
Copy CRC 42EAA2DB
Track not present in AccurateRip database
Copy OK
Track 6
Filename F:\FLAC MUSIC\DANCE CLUB HOUSE\MINISTRY OF SOUND\Ministry Of Sound - Funk The Disco\MOS-FTD - Mix - 03\06.Mary Jane Girls - All Night Long.wav
Peak level 98.8 %
Extraction speed 20.5 X
Track quality 99.8 %
Copy CRC 736753DA
Track not present in AccurateRip database
Copy OK
Track 7
Filename F:\FLAC MUSIC\DANCE CLUB HOUSE\MINISTRY OF SOUND\Ministry Of Sound - Funk The Disco\MOS-FTD - Mix - 03\07.'D' Train - You're The One For Me.wav
Peak level 98.8 %
Extraction speed 26.0 X
Track quality 100.0 %
Copy CRC 4EC955E4
Track not present in AccurateRip database
Copy OK
Track 8
Filename F:\FLAC MUSIC\DANCE CLUB HOUSE\MINISTRY OF SOUND\Ministry Of Sound - Funk The Disco\MOS-FTD - Mix - 03\08.Gwen McCrae - Keep The Fire Burning.wav
Peak level 98.8 %
Extraction speed 27.2 X
Track quality 100.0 %
Copy CRC BA6B8855
Track not present in AccurateRip database
Copy OK
Track 9
Filename F:\FLAC MUSIC\DANCE CLUB HOUSE\MINISTRY OF SOUND\Ministry Of Sound - Funk The Disco\MOS-FTD - Mix - 03\09.A Taste Of Honey - Boogie Oogie Oogie.wav
Peak level 98.8 %
Extraction speed 23.7 X
Track quality 99.8 %
Copy CRC 3139CE46
Track not present in AccurateRip database
Copy OK
Track 10
Filename F:\FLAC MUSIC\DANCE CLUB HOUSE\MINISTRY OF SOUND\Ministry Of Sound - Funk The Disco\MOS-FTD - Mix - 03\10.The S.O.S. Band - Take Your Time [Do It Right].wav
Peak level 98.8 %
Extraction speed 23.7 X
Track quality 99.8 %
Copy CRC 6B3BC2B6
Track not present in AccurateRip database
Copy OK
Track 11
Filename F:\FLAC MUSIC\DANCE CLUB HOUSE\MINISTRY OF SOUND\Ministry Of Sound - Funk The Disco\MOS-FTD - Mix - 03\11.Jocelyn Brown - Somebody Else's Guy.wav
Peak level 98.8 %
Extraction speed 30.5 X
Track quality 100.0 %
Copy CRC DC325BC6
Track not present in AccurateRip database
Copy OK
Track 12
Filename F:\FLAC MUSIC\DANCE CLUB HOUSE\MINISTRY OF SOUND\Ministry Of Sound - Funk The Disco\MOS-FTD - Mix - 03\12.Tom Browne - Funkin' For Jamaica.wav
Peak level 98.8 %
Extraction speed 27.7 X
Track quality 100.0 %
Copy CRC 1CBBC87E
Track not present in AccurateRip database
Copy OK
Track 13
Filename F:\FLAC MUSIC\DANCE CLUB HOUSE\MINISTRY OF SOUND\Ministry Of Sound - Funk The Disco\MOS-FTD - Mix - 03\13.Mac Band - Roses Are Red.wav
Peak level 98.8 %
Extraction speed 31.6 X
Track quality 100.0 %
Copy CRC 79E023EC
Track not present in AccurateRip database
Copy OK
Track 14
Filename F:\FLAC MUSIC\DANCE CLUB HOUSE\MINISTRY OF SOUND\Ministry Of Sound - Funk The Disco\MOS-FTD - Mix - 03\14.Gladys Knight & The Pips - Bourgie' ,Bourgie.wav
Peak level 98.8 %
Extraction speed 29.2 X
Track quality 100.0 %
Copy CRC 111E72EC
Track not present in AccurateRip database
Copy OK
Track 15
Filename F:\FLAC MUSIC\DANCE CLUB HOUSE\MINISTRY OF SOUND\Ministry Of Sound - Funk The Disco\MOS-FTD - Mix - 03\15.Midnight Star - Midas Touch.wav
Peak level 98.8 %
Extraction speed 29.6 X
Track quality 100.0 %
Copy CRC 561DB7AC
Track not present in AccurateRip database
Copy OK
Track 16
Filename F:\FLAC MUSIC\DANCE CLUB HOUSE\MINISTRY OF SOUND\Ministry Of Sound - Funk The Disco\MOS-FTD - Mix - 03\16.Change - Change Of Heart.wav
Peak level 98.8 %
Extraction speed 30.2 X
Track quality 100.0 %
Copy CRC 31A7E813
Track not present in AccurateRip database
Copy OK
Track 17
Filename F:\FLAC MUSIC\DANCE CLUB HOUSE\MINISTRY OF SOUND\Ministry Of Sound - Funk The Disco\MOS-FTD - Mix - 03\17.Cherelle With Alexander O’Neal - Saturday Love.wav
Peak level 98.8 %
Extraction speed 31.2 X
Track quality 100.0 %
Copy CRC 5E62097C
Track not present in AccurateRip database
Copy OK
Track 18
Filename F:\FLAC MUSIC\DANCE CLUB HOUSE\MINISTRY OF SOUND\Ministry Of Sound - Funk The Disco\MOS-FTD - Mix - 03\18.Sharon Brown - I Specialize In Love.wav
Peak level 98.8 %
Extraction speed 36.8 X
Track quality 100.0 %
Copy CRC 6A9B3384
Track not present in AccurateRip database
Copy OK
Track 19
Filename F:\FLAC MUSIC\DANCE CLUB HOUSE\MINISTRY OF SOUND\Ministry Of Sound - Funk The Disco\MOS-FTD - Mix - 03\19.Imagination - Just An Illusion.wav
Peak level 98.8 %
Extraction speed 37.9 X
Track quality 100.0 %
Copy CRC 231208BE
Track not present in AccurateRip database
Copy OK
Track 20
Filename F:\FLAC MUSIC\DANCE CLUB HOUSE\MINISTRY OF SOUND\Ministry Of Sound - Funk The Disco\MOS-FTD - Mix - 03\20.The Jones Girls - Nights Over Egypt.wav
Peak level 98.8 %
Extraction speed 34.3 X
Track quality 100.0 %
Copy CRC 44C934CD
Track not present in AccurateRip database
Copy OK
None of the tracks are present in the AccurateRip database
No errors occurred
End of status report
---- CUETools DB Plugin V2.1.6
[CTDB TOCID: 2f8eIyw60a8TAUnN8JLOdrWQxoo-] found
Submit result: 2f8eIyw60a8TAUnN8JLOdrWQxoo- has been confirmed
Track | CTDB Status
1 | (6/6) Accurately ripped
2 | (6/6) Accurately ripped
3 | (6/6) Accurately ripped
4 | (6/6) Accurately ripped
5 | (6/6) Accurately ripped
6 | (6/6) Accurately ripped
7 | (6/6) Accurately ripped
8 | (6/6) Accurately ripped
9 | (6/6) Accurately ripped
10 | (6/6) Accurately ripped
11 | (6/6) Accurately ripped
12 | (6/6) Accurately ripped
13 | (6/6) Accurately ripped
14 | (6/6) Accurately ripped
15 | (6/6) Accurately ripped
16 | (6/6) Accurately ripped
17 | (6/6) Accurately ripped
18 | (6/6) Accurately ripped
19 | (6/6) Accurately ripped
20 | (6/6) Accurately ripped
 REM GENRE Soul/Funk
REM DATE 2016
REM DISCID 0B113214
REM COMMENT "Exact Audio Copy v1.3"
PERFORMER "Various"
TITLE "Ministry Of Sound - Funk The Disco "
FILE "01.Alexander O'Neal - Criticize.flac" WAVE
TRACK 01 AUDIO
TITLE "Criticize"
PERFORMER "Alexander O'Neal"
INDEX 01 00:00:00
FILE "02.The Emotions - Best Of My Love.flac" WAVE
TRACK 02 AUDIO
TITLE "Best Of My Love"
PERFORMER "The Emotions"
INDEX 01 00:00:00
FILE "03.Evelyn 'Champagne' King - I'm In Love.flac" WAVE
TRACK 03 AUDIO
TITLE "I'm In Love"
PERFORMER "Evelyn 'Champagne' King"
INDEX 01 00:00:00
FILE "04.Gwen Guthrie - Ain't Nothin' Goin' On But The Rent.flac" WAVE
TRACK 04 AUDIO
TITLE "Ain't Nothin' Goin' On But The Rent"
PERFORMER "Gwen Guthrie"
INDEX 01 00:00:00
FILE "05.Odyssey - Going Back To My Roots.flac" WAVE
TRACK 05 AUDIO
TITLE "Going Back To My Roots"
PERFORMER "Odyssey"
INDEX 01 00:00:00
FILE "06.Mary Jane Girls - All Night Long.flac" WAVE
TRACK 06 AUDIO
TITLE "All Night Long"
PERFORMER "Mary Jane Girls"
INDEX 01 00:00:00
FILE "07.'D' Train - You're The One For Me.flac" WAVE
TRACK 07 AUDIO
TITLE "You're The One For Me"
PERFORMER "'D' Train"
INDEX 01 00:00:00
FILE "08.Gwen McCrae - Keep The Fire Burning.flac" WAVE
TRACK 08 AUDIO
TITLE "Keep The Fire Burning"
PERFORMER "Gwen McCrae"
INDEX 01 00:00:00
FILE "09.A Taste Of Honey - Boogie Oogie Oogie.flac" WAVE
TRACK 09 AUDIO
TITLE "Boogie Oogie Oogie"
PERFORMER "A Taste Of Honey"
INDEX 01 00:00:00
FILE "10.The S.O.S. Band - Take Your Time [Do It Right].flac" WAVE
TRACK 10 AUDIO
TITLE "Take Your Time [Do It Right]"
PERFORMER "The S.O.S. Band"
INDEX 01 00:00:00
FILE "11.Jocelyn Brown - Somebody Else's Guy.flac" WAVE
TRACK 11 AUDIO
TITLE "Somebody Else's Guy"
PERFORMER "Jocelyn Brown"
INDEX 01 00:00:00
FILE "12.Tom Browne - Funkin' For Jamaica.flac" WAVE
TRACK 12 AUDIO
TITLE "Funkin' For Jamaica"
PERFORMER "Tom Browne"
INDEX 01 00:00:00
FILE "13.Mac Band - Roses Are Red.flac" WAVE
TRACK 13 AUDIO
TITLE "Roses Are Red"
PERFORMER "Mac Band"
INDEX 01 00:00:00
FILE "14.Gladys Knight & The Pips - Bourgie' ,Bourgie.flac" WAVE
TRACK 14 AUDIO
TITLE "Bourgie' ,Bourgie"
PERFORMER "Gladys Knight & The Pips"
INDEX 01 00:00:00
FILE "15.Midnight Star - Midas Touch.flac" WAVE
TRACK 15 AUDIO
TITLE "Midas Touch"
PERFORMER "Midnight Star"
INDEX 01 00:00:00
FILE "16.Change - Change Of Heart.flac" WAVE
TRACK 16 AUDIO
TITLE "Change Of Heart"
PERFORMER "Change"
INDEX 01 00:00:00
FILE "17.Cherelle With Alexander O'Neal - Saturday Love.flac" WAVE
TRACK 17 AUDIO
TITLE "Saturday Love"
PERFORMER "Cherelle With Alexander O'Neal"
INDEX 01 00:00:00
FILE "18.Sharon Brown - I Specialize In Love.flac" WAVE
TRACK 18 AUDIO
TITLE "I Specialize In Love"
PERFORMER "Sharon Brown"
INDEX 01 00:00:00
FILE "19.Imagination - Just An Illusion.flac" WAVE
TRACK 19 AUDIO
TITLE "Just An Illusion"
PERFORMER "Imagination"
INDEX 01 00:00:00
FILE "20.The Jones Girls - Nights Over Egypt.flac" WAVE
TRACK 20 AUDIO
TITLE "Nights Over Egypt"
PERFORMER "The Jones Girls"
INDEX 01 00:00:00

[1.49 GB] Скачать / Download