(Synth Pop, Hi NRG, Euro-Disco, Electronic) VA - Twelve Inch Eighties: People Hold On (3CD) - 2016, FLAC (tracks+.cue), lossless - Скачать

Various - Twelve Inch Eighties: People Hold On (3CD)

Жанр: Synth Pop, Hi NRG, Euro-Disco, Electronic
Носитель: CD
Год издания: 2016
Издатель (лейбл): Demon Music/Crimson Productions
Номер по каталогу: TWIN80001
Аудиокодек: FLAC (*.flac)
Тип рипа: tracks+.cue
Битрейт аудио: lossless
Продолжительность: 03:28:38
Источник (релизер): ruskaval
Наличие сканов в содержимом раздачи: да
 
  

mp3, композиции, lossless, скачать, торрент, бесплатно, песни, альбом, поп, музыка, поп-музыка, альбом, cd, torrent, трек, высокое качество, download, pop, дискография, soundtrack, pop-music

Продолжительность: 64:47
Треклист:
01. People Hold On (12″ Disco Version) (Coldcut Ft Lisa Stansfield) (9:27)
02. Theme From S'express (12″ Extended) (S'express) (6:02)
03. Beat Dis (Extended Dis) (Bomb The Bass) (5:58)
04. Love Can't Turn Around (12″ Extended Version) (Farley Jackmaster Funk) (7:05)
05. Promised Land (Club Mix) (Joe Smooth) (5:08)
06. Rock It (12″ Version) (Herbie Hancock) (5:26)
07. I Wonder If I Take You Home (Extended Version) (Lisa Lisa & Cult Jam) (6:47)
08. Alice I Want You Just For Me! (12″ Version) (Full Force) (6:15)
09. Got To Get (Extended Version) (Rob N Raz Ft Leila K) (4:29)
10. Body Work (Hot Streak) (8:11)
Лог создания рипа
 Exact Audio Copy V1.0 beta 4 from 7. December 2014
EAC extraction logfile from 19. September 2016, 15:17
Various Artists / 12 Inch Eighties: People Hold On [CD1]
Used drive : MATSHITADVD-RAM UJ8D2Q Adapter: 1 ID: 0
Read mode : Secure
Utilize accurate stream : Yes
Defeat audio cache : Yes
Make use of C2 pointers : No
Read offset correction : 103
Overread into Lead-In and Lead-Out : No
Fill up missing offset samples with silence : Yes
Delete leading and trailing silent blocks : No
Null samples used in CRC calculations : Yes
Used interface : Native Win32 interface for Win NT & 2000
Gap handling : Appended to previous track
Used output format : User Defined Encoder
Selected bitrate : 896 kBit/s
Quality : High
Add ID3 tag : No
Command line compressor : C:\Program Files (x86)\Exact Audio Copy\Flac\flac.exe
Additional command line options : -8 -V -T "ARTIST=%artist%" -T "TITLE=%title%" -T "ALBUM=%albumtitle%" -T "DATE=%year%" -T "TRACKNUMBER=%tracknr%" -T "TOTALTRACKS=%numtracks%" -T "GENRE=%genre%" -T "ALBUMARTIST=%albumartist%" -T "ALBUM ARTIST=%albumartist%" -T "COMMENT=EAC Secure Mode, Test & Copy, AccurateRip, FLAC -8" %source%
TOC of the extracted CD
Track | Start | Length | Start sector | End sector
---------------------------------------------------------
1 | 0:00.00 | 9:27.20 | 0 | 42544
2 | 9:27.20 | 6:01.67 | 42545 | 69686
3 | 15:29.12 | 5:57.47 | 69687 | 96508
4 | 21:26.59 | 7:05.09 | 96509 | 128392
5 | 28:31.68 | 5:07.59 | 128393 | 151476
6 | 33:39.52 | 5:25.61 | 151477 | 175912
7 | 39:05.38 | 6:46.61 | 175913 | 206423
8 | 45:52.24 | 6:15.07 | 206424 | 234555
9 | 52:07.31 | 4:28.63 | 234556 | 254718
10 | 56:36.19 | 8:10.57 | 254719 | 291525
Track 1
Filename C:\Users\paul\AppData\Local\VirtualStore\Program Files (x86)\Exact Audio Copy\Flac\01 - Coldcut Ft Lisa Stansfield - People Hold On (12'' Disco Version).wav
Pre-gap length 0:00:02.00
Peak level 98.7 %
Extraction speed 2.8 X
Track quality 100.0 %
Test CRC BDDDBAC2
Copy CRC BDDDBAC2
Accurately ripped (confidence 10) [FAD4AE97] (AR v2)
Copy OK
Track 2
Filename C:\Users\paul\AppData\Local\VirtualStore\Program Files (x86)\Exact Audio Copy\Flac\02 - S'express - Theme From S'express (12'' Extended).wav
Pre-gap length 0:00:02.00
Peak level 98.6 %
Extraction speed 2.6 X
Track quality 99.9 %
Test CRC C6EC5C99
Copy CRC C6EC5C99
Accurately ripped (confidence 10) [71DAFBEA] (AR v2)
Copy OK
Track 3
Filename C:\Users\paul\AppData\Local\VirtualStore\Program Files (x86)\Exact Audio Copy\Flac\03 - Bomb The Bass - Beat Dis (Extended Dis).wav
Pre-gap length 0:00:02.00
Peak level 98.4 %
Extraction speed 3.6 X
Track quality 100.0 %
Test CRC DCE8894C
Copy CRC DCE8894C
Accurately ripped (confidence 10) [C7661D6F] (AR v2)
Copy OK
Track 4
Filename C:\Users\paul\AppData\Local\VirtualStore\Program Files (x86)\Exact Audio Copy\Flac\04 - Farley Jackmaster Funk - Love Can't Turn Around (12'' Extended Version).wav
Pre-gap length 0:00:02.00
Peak level 98.5 %
Extraction speed 3.9 X
Track quality 100.0 %
Test CRC 219B995D
Copy CRC 219B995D
Accurately ripped (confidence 10) [4BE7062D] (AR v2)
Copy OK
Track 5
Filename C:\Users\paul\AppData\Local\VirtualStore\Program Files (x86)\Exact Audio Copy\Flac\05 - Joe Smooth - Promised Land (Club Mix).wav
Pre-gap length 0:00:02.00
Peak level 98.5 %
Extraction speed 4.1 X
Track quality 100.0 %
Test CRC 0CBBC408
Copy CRC 0CBBC408
Accurately ripped (confidence 9) [9FEF5E72] (AR v2)
Copy OK
Track 6
Filename C:\Users\paul\AppData\Local\VirtualStore\Program Files (x86)\Exact Audio Copy\Flac\06 - Herbie Hancock - Rock It (12'' Version).wav
Pre-gap length 0:00:02.00
Peak level 98.4 %
Extraction speed 4.3 X
Track quality 100.0 %
Test CRC F58A1E87
Copy CRC F58A1E87
Accurately ripped (confidence 10) [B16CC265] (AR v2)
Copy OK
Track 7
Filename C:\Users\paul\AppData\Local\VirtualStore\Program Files (x86)\Exact Audio Copy\Flac\07 - Lisa Lisa & Cult Jam - I Wonder If I Take You Home (Extended Version).wav
Pre-gap length 0:00:02.00
Peak level 98.8 %
Extraction speed 4.6 X
Track quality 100.0 %
Test CRC 75884F77
Copy CRC 75884F77
Accurately ripped (confidence 9) [C51F8F69] (AR v2)
Copy OK
Track 8
Filename C:\Users\paul\AppData\Local\VirtualStore\Program Files (x86)\Exact Audio Copy\Flac\08 - Full Force - Alice I Want You Just For Me! (12'' Version).wav
Pre-gap length 0:00:02.00
Peak level 98.8 %
Extraction speed 4.8 X
Track quality 100.0 %
Test CRC 09C65B48
Copy CRC 09C65B48
Accurately ripped (confidence 9) [9DF919B9] (AR v2)
Copy OK
Track 9
Filename C:\Users\paul\AppData\Local\VirtualStore\Program Files (x86)\Exact Audio Copy\Flac\09 - Rob N Raz Ft Leila K - Got To Get (Extended Version).wav
Pre-gap length 0:00:02.00
Peak level 98.5 %
Extraction speed 4.8 X
Track quality 100.0 %
Test CRC 1519E3C3
Copy CRC 1519E3C3
Accurately ripped (confidence 9) [4E290693] (AR v2)
Copy OK
Track 10
Filename C:\Users\paul\AppData\Local\VirtualStore\Program Files (x86)\Exact Audio Copy\Flac\10 - Hot Streak - Body Work.wav
Pre-gap length 0:00:02.00
Peak level 99.0 %
Extraction speed 5.4 X
Track quality 100.0 %
Test CRC 33B5D461
Copy CRC 33B5D461
Accurately ripped (confidence 10) [540934AF] (AR v2)
Copy OK
All tracks accurately ripped
No errors occurred
End of status report
---- CUETools DB Plugin V2.1.4
[CTDB TOCID: JuL5H7CRNjbSiKWLBtdpL1jX24M-] found
Submit result: JuL5H7CRNjbSiKWLBtdpL1jX24M- has been confirmed
Track | CTDB Status
1 | (18/18) Accurately ripped
2 | (18/18) Accurately ripped
3 | (18/18) Accurately ripped
4 | (18/18) Accurately ripped
5 | (18/18) Accurately ripped
6 | (18/18) Accurately ripped
7 | (18/18) Accurately ripped
8 | (18/18) Accurately ripped
9 | (18/18) Accurately ripped
10 | (18/18) Accurately ripped
==== Log checksum 2A695AC267C605B9E8B5837D6DC2EFB10242814D703EE409D5F328FB1970DC81 ====
Содержание индексной карты (.CUE)
 REM DATE 2016
REM GENRE Electronic
REM DISCID 8F0F2F0A
REM COMMENT "ExactAudioCopy v1.0b4"
PERFORMER "Various Artists"
TITLE "Twelve Inch Eighties: People Hold On [CD1]"
FILE "01 - Coldcut Ft Lisa Stansfield - People Hold On (12″ Disco Version).wav" WAVE
TRACK 01 AUDIO
TITLE "People Hold On (12″ Disco Version)"
PERFORMER "Coldcut Ft Lisa Stansfield"
INDEX 01 00:00:00
TRACK 02 AUDIO
TITLE "Theme From S'express (12″ Extended)"
PERFORMER "S'express"
INDEX 00 09:25:20
FILE "02 - S'express - Theme From S'express (12″ Extended).wav" WAVE
INDEX 01 00:00:00
TRACK 03 AUDIO
TITLE "Beat Dis (Extended Dis)"
PERFORMER "Bomb The Bass"
INDEX 00 05:59:67
FILE "03 - Bomb The Bass - Beat Dis (Extended Dis).wav" WAVE
INDEX 01 00:00:00
TRACK 04 AUDIO
TITLE "Love Can't Turn Around (12″ Extended Version)"
PERFORMER "Farley Jackmaster Funk"
INDEX 00 05:55:47
FILE "04 - Farley Jackmaster Funk - Love Can't Turn Around (12″ Extended Version).wav" WAVE
INDEX 01 00:00:00
TRACK 05 AUDIO
TITLE "Promised Land (Club Mix)"
PERFORMER "Joe Smooth"
INDEX 00 07:03:09
FILE "05 - Joe Smooth - Promised Land (Club Mix).wav" WAVE
INDEX 01 00:00:00
TRACK 06 AUDIO
TITLE "Rock It (12″ Version)"
PERFORMER "Herbie Hancock"
INDEX 00 05:05:59
FILE "06 - Herbie Hancock - Rock It (12″ Version).wav" WAVE
INDEX 01 00:00:00
TRACK 07 AUDIO
TITLE "I Wonder If I Take You Home (Extended Version)"
PERFORMER "Lisa Lisa & Cult Jam"
INDEX 00 05:23:61
FILE "07 - Lisa Lisa & Cult Jam - I Wonder If I Take You Home (Extended Version).wav" WAVE
INDEX 01 00:00:00
TRACK 08 AUDIO
TITLE "Alice I Want You Just For Me! (12″ Version)"
PERFORMER "Full Force"
INDEX 00 06:44:61
FILE "08 - Full Force - Alice I Want You Just For Me! (12″ Version).wav" WAVE
INDEX 01 00:00:00
TRACK 09 AUDIO
TITLE "Got To Get (Extended Version)"
PERFORMER "Rob N Raz Ft Leila K"
INDEX 00 06:13:07
FILE "09 - Rob N Raz Ft Leila K - Got To Get (Extended Version).wav" WAVE
INDEX 01 00:00:00
TRACK 10 AUDIO
TITLE "Body Work"
PERFORMER "Hot Streak"
INDEX 00 04:26:63
FILE "10 - Hot Streak - Body Work.wav" WAVE
INDEX 01 00:00:00
 Exact Audio Copy V1.0 beta 4 from 7. December 2014
EAC extraction logfile from 19. September 2016, 15:17
Various Artists / 12 Inch Eighties: People Hold On [CD1]
Used drive : MATSHITADVD-RAM UJ8D2Q Adapter: 1 ID: 0
Read mode : Secure
Utilize accurate stream : Yes
Defeat audio cache : Yes
Make use of C2 pointers : No
Read offset correction : 103
Overread into Lead-In and Lead-Out : No
Fill up missing offset samples with silence : Yes
Delete leading and trailing silent blocks : No
Null samples used in CRC calculations : Yes
Used interface : Native Win32 interface for Win NT & 2000
Gap handling : Appended to previous track
Used output format : User Defined Encoder
Selected bitrate : 896 kBit/s
Quality : High
Add ID3 tag : No
Command line compressor : C:\Program Files (x86)\Exact Audio Copy\Flac\flac.exe
Additional command line options : -8 -V -T "ARTIST=%artist%" -T "TITLE=%title%" -T "ALBUM=%albumtitle%" -T "DATE=%year%" -T "TRACKNUMBER=%tracknr%" -T "TOTALTRACKS=%numtracks%" -T "GENRE=%genre%" -T "ALBUMARTIST=%albumartist%" -T "ALBUM ARTIST=%albumartist%" -T "COMMENT=EAC Secure Mode, Test & Copy, AccurateRip, FLAC -8" %source%
TOC of the extracted CD
Track | Start | Length | Start sector | End sector
---------------------------------------------------------
1 | 0:00.00 | 9:27.20 | 0 | 42544
2 | 9:27.20 | 6:01.67 | 42545 | 69686
3 | 15:29.12 | 5:57.47 | 69687 | 96508
4 | 21:26.59 | 7:05.09 | 96509 | 128392
5 | 28:31.68 | 5:07.59 | 128393 | 151476
6 | 33:39.52 | 5:25.61 | 151477 | 175912
7 | 39:05.38 | 6:46.61 | 175913 | 206423
8 | 45:52.24 | 6:15.07 | 206424 | 234555
9 | 52:07.31 | 4:28.63 | 234556 | 254718
10 | 56:36.19 | 8:10.57 | 254719 | 291525
Track 1
Filename C:\Users\paul\AppData\Local\VirtualStore\Program Files (x86)\Exact Audio Copy\Flac\01 - Coldcut Ft Lisa Stansfield - People Hold On (12'' Disco Version).wav
Pre-gap length 0:00:02.00
Peak level 98.7 %
Extraction speed 2.8 X
Track quality 100.0 %
Test CRC BDDDBAC2
Copy CRC BDDDBAC2
Accurately ripped (confidence 10) [FAD4AE97] (AR v2)
Copy OK
Track 2
Filename C:\Users\paul\AppData\Local\VirtualStore\Program Files (x86)\Exact Audio Copy\Flac\02 - S'express - Theme From S'express (12'' Extended).wav
Pre-gap length 0:00:02.00
Peak level 98.6 %
Extraction speed 2.6 X
Track quality 99.9 %
Test CRC C6EC5C99
Copy CRC C6EC5C99
Accurately ripped (confidence 10) [71DAFBEA] (AR v2)
Copy OK
Track 3
Filename C:\Users\paul\AppData\Local\VirtualStore\Program Files (x86)\Exact Audio Copy\Flac\03 - Bomb The Bass - Beat Dis (Extended Dis).wav
Pre-gap length 0:00:02.00
Peak level 98.4 %
Extraction speed 3.6 X
Track quality 100.0 %
Test CRC DCE8894C
Copy CRC DCE8894C
Accurately ripped (confidence 10) [C7661D6F] (AR v2)
Copy OK
Track 4
Filename C:\Users\paul\AppData\Local\VirtualStore\Program Files (x86)\Exact Audio Copy\Flac\04 - Farley Jackmaster Funk - Love Can't Turn Around (12'' Extended Version).wav
Pre-gap length 0:00:02.00
Peak level 98.5 %
Extraction speed 3.9 X
Track quality 100.0 %
Test CRC 219B995D
Copy CRC 219B995D
Accurately ripped (confidence 10) [4BE7062D] (AR v2)
Copy OK
Track 5
Filename C:\Users\paul\AppData\Local\VirtualStore\Program Files (x86)\Exact Audio Copy\Flac\05 - Joe Smooth - Promised Land (Club Mix).wav
Pre-gap length 0:00:02.00
Peak level 98.5 %
Extraction speed 4.1 X
Track quality 100.0 %
Test CRC 0CBBC408
Copy CRC 0CBBC408
Accurately ripped (confidence 9) [9FEF5E72] (AR v2)
Copy OK
Track 6
Filename C:\Users\paul\AppData\Local\VirtualStore\Program Files (x86)\Exact Audio Copy\Flac\06 - Herbie Hancock - Rock It (12'' Version).wav
Pre-gap length 0:00:02.00
Peak level 98.4 %
Extraction speed 4.3 X
Track quality 100.0 %
Test CRC F58A1E87
Copy CRC F58A1E87
Accurately ripped (confidence 10) [B16CC265] (AR v2)
Copy OK
Track 7
Filename C:\Users\paul\AppData\Local\VirtualStore\Program Files (x86)\Exact Audio Copy\Flac\07 - Lisa Lisa & Cult Jam - I Wonder If I Take You Home (Extended Version).wav
Pre-gap length 0:00:02.00
Peak level 98.8 %
Extraction speed 4.6 X
Track quality 100.0 %
Test CRC 75884F77
Copy CRC 75884F77
Accurately ripped (confidence 9) [C51F8F69] (AR v2)
Copy OK
Track 8
Filename C:\Users\paul\AppData\Local\VirtualStore\Program Files (x86)\Exact Audio Copy\Flac\08 - Full Force - Alice I Want You Just For Me! (12'' Version).wav
Pre-gap length 0:00:02.00
Peak level 98.8 %
Extraction speed 4.8 X
Track quality 100.0 %
Test CRC 09C65B48
Copy CRC 09C65B48
Accurately ripped (confidence 9) [9DF919B9] (AR v2)
Copy OK
Track 9
Filename C:\Users\paul\AppData\Local\VirtualStore\Program Files (x86)\Exact Audio Copy\Flac\09 - Rob N Raz Ft Leila K - Got To Get (Extended Version).wav
Pre-gap length 0:00:02.00
Peak level 98.5 %
Extraction speed 4.8 X
Track quality 100.0 %
Test CRC 1519E3C3
Copy CRC 1519E3C3
Accurately ripped (confidence 9) [4E290693] (AR v2)
Copy OK
Track 10
Filename C:\Users\paul\AppData\Local\VirtualStore\Program Files (x86)\Exact Audio Copy\Flac\10 - Hot Streak - Body Work.wav
Pre-gap length 0:00:02.00
Peak level 99.0 %
Extraction speed 5.4 X
Track quality 100.0 %
Test CRC 33B5D461
Copy CRC 33B5D461
Accurately ripped (confidence 10) [540934AF] (AR v2)
Copy OK
All tracks accurately ripped
No errors occurred
End of status report
---- CUETools DB Plugin V2.1.4
[CTDB TOCID: JuL5H7CRNjbSiKWLBtdpL1jX24M-] found
Submit result: JuL5H7CRNjbSiKWLBtdpL1jX24M- has been confirmed
Track | CTDB Status
1 | (18/18) Accurately ripped
2 | (18/18) Accurately ripped
3 | (18/18) Accurately ripped
4 | (18/18) Accurately ripped
5 | (18/18) Accurately ripped
6 | (18/18) Accurately ripped
7 | (18/18) Accurately ripped
8 | (18/18) Accurately ripped
9 | (18/18) Accurately ripped
10 | (18/18) Accurately ripped
==== Log checksum 2A695AC267C605B9E8B5837D6DC2EFB10242814D703EE409D5F328FB1970DC81 ====
 REM DATE 2016
REM GENRE Electronic
REM DISCID 8F0F2F0A
REM COMMENT "ExactAudioCopy v1.0b4"
PERFORMER "Various Artists"
TITLE "Twelve Inch Eighties: People Hold On [CD1]"
FILE "01 - Coldcut Ft Lisa Stansfield - People Hold On (12″ Disco Version).wav" WAVE
TRACK 01 AUDIO
TITLE "People Hold On (12″ Disco Version)"
PERFORMER "Coldcut Ft Lisa Stansfield"
INDEX 01 00:00:00
TRACK 02 AUDIO
TITLE "Theme From S'express (12″ Extended)"
PERFORMER "S'express"
INDEX 00 09:25:20
FILE "02 - S'express - Theme From S'express (12″ Extended).wav" WAVE
INDEX 01 00:00:00
TRACK 03 AUDIO
TITLE "Beat Dis (Extended Dis)"
PERFORMER "Bomb The Bass"
INDEX 00 05:59:67
FILE "03 - Bomb The Bass - Beat Dis (Extended Dis).wav" WAVE
INDEX 01 00:00:00
TRACK 04 AUDIO
TITLE "Love Can't Turn Around (12″ Extended Version)"
PERFORMER "Farley Jackmaster Funk"
INDEX 00 05:55:47
FILE "04 - Farley Jackmaster Funk - Love Can't Turn Around (12″ Extended Version).wav" WAVE
INDEX 01 00:00:00
TRACK 05 AUDIO
TITLE "Promised Land (Club Mix)"
PERFORMER "Joe Smooth"
INDEX 00 07:03:09
FILE "05 - Joe Smooth - Promised Land (Club Mix).wav" WAVE
INDEX 01 00:00:00
TRACK 06 AUDIO
TITLE "Rock It (12″ Version)"
PERFORMER "Herbie Hancock"
INDEX 00 05:05:59
FILE "06 - Herbie Hancock - Rock It (12″ Version).wav" WAVE
INDEX 01 00:00:00
TRACK 07 AUDIO
TITLE "I Wonder If I Take You Home (Extended Version)"
PERFORMER "Lisa Lisa & Cult Jam"
INDEX 00 05:23:61
FILE "07 - Lisa Lisa & Cult Jam - I Wonder If I Take You Home (Extended Version).wav" WAVE
INDEX 01 00:00:00
TRACK 08 AUDIO
TITLE "Alice I Want You Just For Me! (12″ Version)"
PERFORMER "Full Force"
INDEX 00 06:44:61
FILE "08 - Full Force - Alice I Want You Just For Me! (12″ Version).wav" WAVE
INDEX 01 00:00:00
TRACK 09 AUDIO
TITLE "Got To Get (Extended Version)"
PERFORMER "Rob N Raz Ft Leila K"
INDEX 00 06:13:07
FILE "09 - Rob N Raz Ft Leila K - Got To Get (Extended Version).wav" WAVE
INDEX 01 00:00:00
TRACK 10 AUDIO
TITLE "Body Work"
PERFORMER "Hot Streak"
INDEX 00 04:26:63
FILE "10 - Hot Streak - Body Work.wav" WAVE
INDEX 01 00:00:00
Продолжительность: 70:17
Треклист:
01. Just Be Good To Me (12″ Extended Version) (Sos Band) (9:01)
02. The Lovers (Extended 12″ Version) (Alexander O'neal) (7:04)
03. Come Into My Life (12″ Mix) (Joyce Sims) (8:21)
04. I Really Didn't Mean It (12″ Version) (Luther Vandross) (6:39)
05. Love Is In Control (12″ Dance Remix) (Donna Summer) (7:09)
06. Jump To It (Original 12″ Mix) (Aretha Franklin) (6:42)
07. Shake It Up Tonight (12″ Version) (Cheryl Lynn) (5:44)
08. Something's Jumpin' In Your Shirt (Walk The Body Mix) (Lisa Marie W/Malcolm Mclaren And The Bootzilla Orchestra) (7:41)
09. Love House (12″ Black Pyramid Mix) (Samantha Fox) (6:44)
10. I'll House You (Gee St. Reconstruction Mix) (Jungle Brothers) (5:12)
Лог создания рипа
 Exact Audio Copy V1.0 beta 4 from 7. December 2014
EAC extraction logfile from 19. September 2016, 17:17
Various Artists / 12 Inch Eighties: People Hold On [CD2]
Used drive : MATSHITADVD-RAM UJ8D2Q Adapter: 1 ID: 0
Read mode : Secure
Utilize accurate stream : Yes
Defeat audio cache : Yes
Make use of C2 pointers : No
Read offset correction : 103
Overread into Lead-In and Lead-Out : No
Fill up missing offset samples with silence : Yes
Delete leading and trailing silent blocks : No
Null samples used in CRC calculations : Yes
Used interface : Native Win32 interface for Win NT & 2000
Gap handling : Appended to previous track
Used output format : User Defined Encoder
Selected bitrate : 896 kBit/s
Quality : High
Add ID3 tag : No
Command line compressor : C:\Program Files (x86)\Exact Audio Copy\Flac\flac.exe
Additional command line options : -8 -V -T "ARTIST=%artist%" -T "TITLE=%title%" -T "ALBUM=%albumtitle%" -T "DATE=%year%" -T "TRACKNUMBER=%tracknr%" -T "TOTALTRACKS=%numtracks%" -T "GENRE=%genre%" -T "ALBUMARTIST=%albumartist%" -T "ALBUM ARTIST=%albumartist%" -T "COMMENT=EAC Secure Mode, Test & Copy, AccurateRip, FLAC -8" %source%
TOC of the extracted CD
Track | Start | Length | Start sector | End sector
---------------------------------------------------------
1 | 0:00.00 | 9:01.13 | 0 | 40587
2 | 9:01.13 | 7:04.35 | 40588 | 72422
3 | 16:05.48 | 8:20.58 | 72423 | 109980
4 | 24:26.31 | 6:39.14 | 109981 | 139919
5 | 31:05.45 | 7:08.39 | 139920 | 172058
6 | 38:14.09 | 6:41.68 | 172059 | 202201
7 | 44:56.02 | 5:43.63 | 202202 | 227989
8 | 50:39.65 | 7:40.66 | 227990 | 262555
9 | 58:20.56 | 6:44.14 | 262556 | 292869
10 | 65:04.70 | 5:11.71 | 292870 | 316265
Track 1
Filename C:\Users\paul\AppData\Local\VirtualStore\Program Files (x86)\Exact Audio Copy\Flac\01 - Sos Band - Just Be Good To Me (12'' Extended Version).wav
Pre-gap length 0:00:02.00
Peak level 96.4 %
Extraction speed 2.5 X
Track quality 99.9 %
Test CRC E6F0F4FE
Copy CRC E6F0F4FE
Accurately ripped (confidence 10) [99444015] (AR v2)
Copy OK
Track 2
Filename C:\Users\paul\AppData\Local\VirtualStore\Program Files (x86)\Exact Audio Copy\Flac\02 - Alexander O'neal - The Lovers (Extended 12'' Version).wav
Pre-gap length 0:00:02.00
Peak level 96.6 %
Extraction speed 3.4 X
Track quality 100.0 %
Test CRC 987DA500
Copy CRC 987DA500
Accurately ripped (confidence 10) [AC1475BA] (AR v2)
Copy OK
Track 3
Filename C:\Users\paul\AppData\Local\VirtualStore\Program Files (x86)\Exact Audio Copy\Flac\03 - Joyce Sims - Come Into My Life (12'' Mix).wav
Pre-gap length 0:00:02.00
Peak level 96.5 %
Extraction speed 3.8 X
Track quality 100.0 %
Test CRC 577B1AE3
Copy CRC 577B1AE3
Accurately ripped (confidence 10) [F97FB019] (AR v2)
Copy OK
Track 4
Filename C:\Users\paul\AppData\Local\VirtualStore\Program Files (x86)\Exact Audio Copy\Flac\04 - Luther Vandross - I Really Didn't Mean It (12'' Version).wav
Pre-gap length 0:00:02.00
Peak level 96.6 %
Extraction speed 4.1 X
Track quality 100.0 %
Test CRC FCFB7955
Copy CRC FCFB7955
Accurately ripped (confidence 10) [A350B6FB] (AR v2)
Copy OK
Track 5
Filename C:\Users\paul\AppData\Local\VirtualStore\Program Files (x86)\Exact Audio Copy\Flac\05 - Donna Summer - Love Is In Control (12'' Dance Remix).wav
Pre-gap length 0:00:02.00
Peak level 96.6 %
Extraction speed 4.4 X
Track quality 100.0 %
Test CRC 28EB47E4
Copy CRC 28EB47E4
Accurately ripped (confidence 9) [B7DAC5B6] (AR v2)
Copy OK
Track 6
Filename C:\Users\paul\AppData\Local\VirtualStore\Program Files (x86)\Exact Audio Copy\Flac\06 - Aretha Franklin - Jump To It (Original 12'' Mix).wav
Pre-gap length 0:00:02.00
Peak level 96.6 %
Extraction speed 4.7 X
Track quality 100.0 %
Test CRC 77C5141B
Copy CRC 77C5141B
Accurately ripped (confidence 9) [9303EC55] (AR v2)
Copy OK
Track 7
Filename C:\Users\paul\AppData\Local\VirtualStore\Program Files (x86)\Exact Audio Copy\Flac\07 - Cheryl Lynn - Shake It Up Tonight (12'' Version).wav
Pre-gap length 0:00:02.00
Peak level 96.6 %
Extraction speed 4.8 X
Track quality 100.0 %
Test CRC EF457C4C
Copy CRC EF457C4C
Accurately ripped (confidence 9) [8E24493D] (AR v2)
Copy OK
Track 8
Filename C:\Users\paul\AppData\Local\VirtualStore\Program Files (x86)\Exact Audio Copy\Flac\08 - Lisa Marie W,Malcolm Mclaren And The Bootzilla Orchestra - Something's Jumpin' In Your Shirt (Walk The Body Mix).wav
Pre-gap length 0:00:02.00
Peak level 96.6 %
Extraction speed 5.2 X
Track quality 100.0 %
Test CRC 72ABC435
Copy CRC 72ABC435
Accurately ripped (confidence 9) [8BAB580C] (AR v2)
Copy OK
Track 9
Filename C:\Users\paul\AppData\Local\VirtualStore\Program Files (x86)\Exact Audio Copy\Flac\09 - Samantha Fox - Love House (12'' Black Pyramid Mix).wav
Pre-gap length 0:00:02.00
Peak level 96.6 %
Extraction speed 5.4 X
Track quality 100.0 %
Test CRC 66E18762
Copy CRC 66E18762
Accurately ripped (confidence 9) [5832521D] (AR v2)
Copy OK
Track 10
Filename C:\Users\paul\AppData\Local\VirtualStore\Program Files (x86)\Exact Audio Copy\Flac\10 - Jungle Brothers - I'll House You (Gee St. Reconstruction Mix).wav
Pre-gap length 0:00:02.00
Peak level 97.3 %
Extraction speed 5.5 X
Track quality 100.0 %
Test CRC 7CD58C36
Copy CRC 7CD58C36
Accurately ripped (confidence 8) [F4340779] (AR v2)
Copy OK
All tracks accurately ripped
No errors occurred
End of status report
---- CUETools DB Plugin V2.1.4
[CTDB TOCID: mZ6v5eqJrdUJqpJYoVv8Kjj.xOo-] found
Submit result: mZ6v5eqJrdUJqpJYoVv8Kjj.xOo- has been confirmed
Track | CTDB Status
1 | (17/17) Accurately ripped
2 | (17/17) Accurately ripped
3 | (17/17) Accurately ripped
4 | (17/17) Accurately ripped
5 | (17/17) Accurately ripped
6 | (17/17) Accurately ripped
7 | (17/17) Accurately ripped
8 | (17/17) Accurately ripped
9 | (16/17) Accurately ripped
10 | (17/17) Accurately ripped
==== Log checksum 075C4562E57FE76FE66D8A4F8F9F855D17E54AE39805F1952684AE332522F033 ====
Содержание индексной карты (.CUE)
 REM DATE 2016
REM GENRE Electronic
REM DISCID 9D10780A
REM COMMENT "ExactAudioCopy v1.0b4"
PERFORMER "Various Artists"
TITLE "Twelve Inch Eighties: People Hold On [CD2]"
FILE "01 - Sos Band - Just Be Good To Me (12″ Extended Version).wav" WAVE
TRACK 01 AUDIO
TITLE "Just Be Good To Me (12″ Extended Version)"
PERFORMER "Sos Band"
INDEX 01 00:00:00
TRACK 02 AUDIO
TITLE "The Lovers (Extended 12″ Version)"
PERFORMER "Alexander O'neal"
INDEX 00 08:59:13
FILE "02 - Alexander O'neal - The Lovers (Extended 12″ Version).wav" WAVE
INDEX 01 00:00:00
TRACK 03 AUDIO
TITLE "Come Into My Life (12″ Mix)"
PERFORMER "Joyce Sims"
INDEX 00 07:02:35
FILE "03 - Joyce Sims - Come Into My Life (12″ Mix).wav" WAVE
INDEX 01 00:00:00
TRACK 04 AUDIO
TITLE "I Really Didn't Mean It (12″ Version)"
PERFORMER "Luther Vandross"
INDEX 00 08:18:58
FILE "04 - Luther Vandross - I Really Didn't Mean It (12″ Version).wav" WAVE
INDEX 01 00:00:00
TRACK 05 AUDIO
TITLE "Love Is In Control (12″ Dance Remix)"
PERFORMER "Donna Summer"
INDEX 00 06:37:14
FILE "05 - Donna Summer - Love Is In Control (12″ Dance Remix).wav" WAVE
INDEX 01 00:00:00
TRACK 06 AUDIO
TITLE "Jump To It (Original 12″ Mix)"
PERFORMER "Aretha Franklin"
INDEX 00 07:06:39
FILE "06 - Aretha Franklin - Jump To It (Original 12″ Mix).wav" WAVE
INDEX 01 00:00:00
TRACK 07 AUDIO
TITLE "Shake It Up Tonight (12″ Version)"
PERFORMER "Cheryl Lynn"
INDEX 00 06:39:68
FILE "07 - Cheryl Lynn - Shake It Up Tonight (12″ Version).wav" WAVE
INDEX 01 00:00:00
TRACK 08 AUDIO
TITLE "Something's Jumpin' In Your Shirt (Walk The Body Mix)"
PERFORMER "Lisa Marie W/Malcolm Mclaren And The Bootzilla Orchestra"
INDEX 00 05:41:63
FILE "08 - Lisa Marie W,Malcolm Mclaren And The Bootzilla Orchestra - Something's Jumpin' In Your Shirt (Walk The Body Mix).wav" WAVE
INDEX 01 00:00:00
TRACK 09 AUDIO
TITLE "Love House (12″ Black Pyramid Mix)"
PERFORMER "Samantha Fox"
INDEX 00 07:38:66
FILE "09 - Samantha Fox - Love House (12″ Black Pyramid Mix).wav" WAVE
INDEX 01 00:00:00
TRACK 10 AUDIO
TITLE "I'll House You (Gee St. Reconstruction Mix)"
PERFORMER "Jungle Brothers"
INDEX 00 06:42:14
FILE "10 - Jungle Brothers - I'll House You (Gee St. Reconstruction Mix).wav" WAVE
INDEX 01 00:00:00
 Exact Audio Copy V1.0 beta 4 from 7. December 2014
EAC extraction logfile from 19. September 2016, 17:17
Various Artists / 12 Inch Eighties: People Hold On [CD2]
Used drive : MATSHITADVD-RAM UJ8D2Q Adapter: 1 ID: 0
Read mode : Secure
Utilize accurate stream : Yes
Defeat audio cache : Yes
Make use of C2 pointers : No
Read offset correction : 103
Overread into Lead-In and Lead-Out : No
Fill up missing offset samples with silence : Yes
Delete leading and trailing silent blocks : No
Null samples used in CRC calculations : Yes
Used interface : Native Win32 interface for Win NT & 2000
Gap handling : Appended to previous track
Used output format : User Defined Encoder
Selected bitrate : 896 kBit/s
Quality : High
Add ID3 tag : No
Command line compressor : C:\Program Files (x86)\Exact Audio Copy\Flac\flac.exe
Additional command line options : -8 -V -T "ARTIST=%artist%" -T "TITLE=%title%" -T "ALBUM=%albumtitle%" -T "DATE=%year%" -T "TRACKNUMBER=%tracknr%" -T "TOTALTRACKS=%numtracks%" -T "GENRE=%genre%" -T "ALBUMARTIST=%albumartist%" -T "ALBUM ARTIST=%albumartist%" -T "COMMENT=EAC Secure Mode, Test & Copy, AccurateRip, FLAC -8" %source%
TOC of the extracted CD
Track | Start | Length | Start sector | End sector
---------------------------------------------------------
1 | 0:00.00 | 9:01.13 | 0 | 40587
2 | 9:01.13 | 7:04.35 | 40588 | 72422
3 | 16:05.48 | 8:20.58 | 72423 | 109980
4 | 24:26.31 | 6:39.14 | 109981 | 139919
5 | 31:05.45 | 7:08.39 | 139920 | 172058
6 | 38:14.09 | 6:41.68 | 172059 | 202201
7 | 44:56.02 | 5:43.63 | 202202 | 227989
8 | 50:39.65 | 7:40.66 | 227990 | 262555
9 | 58:20.56 | 6:44.14 | 262556 | 292869
10 | 65:04.70 | 5:11.71 | 292870 | 316265
Track 1
Filename C:\Users\paul\AppData\Local\VirtualStore\Program Files (x86)\Exact Audio Copy\Flac\01 - Sos Band - Just Be Good To Me (12'' Extended Version).wav
Pre-gap length 0:00:02.00
Peak level 96.4 %
Extraction speed 2.5 X
Track quality 99.9 %
Test CRC E6F0F4FE
Copy CRC E6F0F4FE
Accurately ripped (confidence 10) [99444015] (AR v2)
Copy OK
Track 2
Filename C:\Users\paul\AppData\Local\VirtualStore\Program Files (x86)\Exact Audio Copy\Flac\02 - Alexander O'neal - The Lovers (Extended 12'' Version).wav
Pre-gap length 0:00:02.00
Peak level 96.6 %
Extraction speed 3.4 X
Track quality 100.0 %
Test CRC 987DA500
Copy CRC 987DA500
Accurately ripped (confidence 10) [AC1475BA] (AR v2)
Copy OK
Track 3
Filename C:\Users\paul\AppData\Local\VirtualStore\Program Files (x86)\Exact Audio Copy\Flac\03 - Joyce Sims - Come Into My Life (12'' Mix).wav
Pre-gap length 0:00:02.00
Peak level 96.5 %
Extraction speed 3.8 X
Track quality 100.0 %
Test CRC 577B1AE3
Copy CRC 577B1AE3
Accurately ripped (confidence 10) [F97FB019] (AR v2)
Copy OK
Track 4
Filename C:\Users\paul\AppData\Local\VirtualStore\Program Files (x86)\Exact Audio Copy\Flac\04 - Luther Vandross - I Really Didn't Mean It (12'' Version).wav
Pre-gap length 0:00:02.00
Peak level 96.6 %
Extraction speed 4.1 X
Track quality 100.0 %
Test CRC FCFB7955
Copy CRC FCFB7955
Accurately ripped (confidence 10) [A350B6FB] (AR v2)
Copy OK
Track 5
Filename C:\Users\paul\AppData\Local\VirtualStore\Program Files (x86)\Exact Audio Copy\Flac\05 - Donna Summer - Love Is In Control (12'' Dance Remix).wav
Pre-gap length 0:00:02.00
Peak level 96.6 %
Extraction speed 4.4 X
Track quality 100.0 %
Test CRC 28EB47E4
Copy CRC 28EB47E4
Accurately ripped (confidence 9) [B7DAC5B6] (AR v2)
Copy OK
Track 6
Filename C:\Users\paul\AppData\Local\VirtualStore\Program Files (x86)\Exact Audio Copy\Flac\06 - Aretha Franklin - Jump To It (Original 12'' Mix).wav
Pre-gap length 0:00:02.00
Peak level 96.6 %
Extraction speed 4.7 X
Track quality 100.0 %
Test CRC 77C5141B
Copy CRC 77C5141B
Accurately ripped (confidence 9) [9303EC55] (AR v2)
Copy OK
Track 7
Filename C:\Users\paul\AppData\Local\VirtualStore\Program Files (x86)\Exact Audio Copy\Flac\07 - Cheryl Lynn - Shake It Up Tonight (12'' Version).wav
Pre-gap length 0:00:02.00
Peak level 96.6 %
Extraction speed 4.8 X
Track quality 100.0 %
Test CRC EF457C4C
Copy CRC EF457C4C
Accurately ripped (confidence 9) [8E24493D] (AR v2)
Copy OK
Track 8
Filename C:\Users\paul\AppData\Local\VirtualStore\Program Files (x86)\Exact Audio Copy\Flac\08 - Lisa Marie W,Malcolm Mclaren And The Bootzilla Orchestra - Something's Jumpin' In Your Shirt (Walk The Body Mix).wav
Pre-gap length 0:00:02.00
Peak level 96.6 %
Extraction speed 5.2 X
Track quality 100.0 %
Test CRC 72ABC435
Copy CRC 72ABC435
Accurately ripped (confidence 9) [8BAB580C] (AR v2)
Copy OK
Track 9
Filename C:\Users\paul\AppData\Local\VirtualStore\Program Files (x86)\Exact Audio Copy\Flac\09 - Samantha Fox - Love House (12'' Black Pyramid Mix).wav
Pre-gap length 0:00:02.00
Peak level 96.6 %
Extraction speed 5.4 X
Track quality 100.0 %
Test CRC 66E18762
Copy CRC 66E18762
Accurately ripped (confidence 9) [5832521D] (AR v2)
Copy OK
Track 10
Filename C:\Users\paul\AppData\Local\VirtualStore\Program Files (x86)\Exact Audio Copy\Flac\10 - Jungle Brothers - I'll House You (Gee St. Reconstruction Mix).wav
Pre-gap length 0:00:02.00
Peak level 97.3 %
Extraction speed 5.5 X
Track quality 100.0 %
Test CRC 7CD58C36
Copy CRC 7CD58C36
Accurately ripped (confidence 8) [F4340779] (AR v2)
Copy OK
All tracks accurately ripped
No errors occurred
End of status report
---- CUETools DB Plugin V2.1.4
[CTDB TOCID: mZ6v5eqJrdUJqpJYoVv8Kjj.xOo-] found
Submit result: mZ6v5eqJrdUJqpJYoVv8Kjj.xOo- has been confirmed
Track | CTDB Status
1 | (17/17) Accurately ripped
2 | (17/17) Accurately ripped
3 | (17/17) Accurately ripped
4 | (17/17) Accurately ripped
5 | (17/17) Accurately ripped
6 | (17/17) Accurately ripped
7 | (17/17) Accurately ripped
8 | (17/17) Accurately ripped
9 | (16/17) Accurately ripped
10 | (17/17) Accurately ripped
==== Log checksum 075C4562E57FE76FE66D8A4F8F9F855D17E54AE39805F1952684AE332522F033 ====
 REM DATE 2016
REM GENRE Electronic
REM DISCID 9D10780A
REM COMMENT "ExactAudioCopy v1.0b4"
PERFORMER "Various Artists"
TITLE "Twelve Inch Eighties: People Hold On [CD2]"
FILE "01 - Sos Band - Just Be Good To Me (12″ Extended Version).wav" WAVE
TRACK 01 AUDIO
TITLE "Just Be Good To Me (12″ Extended Version)"
PERFORMER "Sos Band"
INDEX 01 00:00:00
TRACK 02 AUDIO
TITLE "The Lovers (Extended 12″ Version)"
PERFORMER "Alexander O'neal"
INDEX 00 08:59:13
FILE "02 - Alexander O'neal - The Lovers (Extended 12″ Version).wav" WAVE
INDEX 01 00:00:00
TRACK 03 AUDIO
TITLE "Come Into My Life (12″ Mix)"
PERFORMER "Joyce Sims"
INDEX 00 07:02:35
FILE "03 - Joyce Sims - Come Into My Life (12″ Mix).wav" WAVE
INDEX 01 00:00:00
TRACK 04 AUDIO
TITLE "I Really Didn't Mean It (12″ Version)"
PERFORMER "Luther Vandross"
INDEX 00 08:18:58
FILE "04 - Luther Vandross - I Really Didn't Mean It (12″ Version).wav" WAVE
INDEX 01 00:00:00
TRACK 05 AUDIO
TITLE "Love Is In Control (12″ Dance Remix)"
PERFORMER "Donna Summer"
INDEX 00 06:37:14
FILE "05 - Donna Summer - Love Is In Control (12″ Dance Remix).wav" WAVE
INDEX 01 00:00:00
TRACK 06 AUDIO
TITLE "Jump To It (Original 12″ Mix)"
PERFORMER "Aretha Franklin"
INDEX 00 07:06:39
FILE "06 - Aretha Franklin - Jump To It (Original 12″ Mix).wav" WAVE
INDEX 01 00:00:00
TRACK 07 AUDIO
TITLE "Shake It Up Tonight (12″ Version)"
PERFORMER "Cheryl Lynn"
INDEX 00 06:39:68
FILE "07 - Cheryl Lynn - Shake It Up Tonight (12″ Version).wav" WAVE
INDEX 01 00:00:00
TRACK 08 AUDIO
TITLE "Something's Jumpin' In Your Shirt (Walk The Body Mix)"
PERFORMER "Lisa Marie W/Malcolm Mclaren And The Bootzilla Orchestra"
INDEX 00 05:41:63
FILE "08 - Lisa Marie W,Malcolm Mclaren And The Bootzilla Orchestra - Something's Jumpin' In Your Shirt (Walk The Body Mix).wav" WAVE
INDEX 01 00:00:00
TRACK 09 AUDIO
TITLE "Love House (12″ Black Pyramid Mix)"
PERFORMER "Samantha Fox"
INDEX 00 07:38:66
FILE "09 - Samantha Fox - Love House (12″ Black Pyramid Mix).wav" WAVE
INDEX 01 00:00:00
TRACK 10 AUDIO
TITLE "I'll House You (Gee St. Reconstruction Mix)"
PERFORMER "Jungle Brothers"
INDEX 00 06:42:14
FILE "10 - Jungle Brothers - I'll House You (Gee St. Reconstruction Mix).wav" WAVE
INDEX 01 00:00:00
Продолжительность: 73:34
Треклист:
01. Dr Beat (Long Version) (Miami Sound Machine) (6:31)
02. Automatic (12″ Special Remix) (Pointer Sisters) (6:09)
03. Saturday Love (12″ Version) (Cherelle & Alexander O'neal) (8:44)
04. Going Back To My Roots (12″ Roots Suite) (Odyssey) (9:51)
05. Lovely Day (88 Remix 12″ Version) (Bill Withers) (6:35)
06. Dance Little Sister (Ttd's Remix) (Terence Trent D'arby) (8:42)
07. Living In America (Extended R&B Dance Mix) (James Brown) (6:32)
08. System Addict (M&M Remix) (Five Star) (5:56)
09. Loverboy (12″ Extended Mix) (Billy Ocean) (8:09)
10. Just An Illusion (Extended Version) (Imagination) (6:26)
Лог создания рипа
 Exact Audio Copy V1.0 beta 4 from 7. December 2014
EAC extraction logfile from 19. September 2016, 18:42
Various Artists / 12 Inch Eighties: People Hold On [CD3]
Used drive : MATSHITADVD-RAM UJ8D2Q Adapter: 1 ID: 0
Read mode : Secure
Utilize accurate stream : Yes
Defeat audio cache : Yes
Make use of C2 pointers : No
Read offset correction : 103
Overread into Lead-In and Lead-Out : No
Fill up missing offset samples with silence : Yes
Delete leading and trailing silent blocks : No
Null samples used in CRC calculations : Yes
Used interface : Native Win32 interface for Win NT & 2000
Gap handling : Appended to previous track
Used output format : User Defined Encoder
Selected bitrate : 896 kBit/s
Quality : High
Add ID3 tag : No
Command line compressor : C:\Program Files (x86)\Exact Audio Copy\Flac\flac.exe
Additional command line options : -8 -V -T "ARTIST=%artist%" -T "TITLE=%title%" -T "ALBUM=%albumtitle%" -T "DATE=%year%" -T "TRACKNUMBER=%tracknr%" -T "TOTALTRACKS=%numtracks%" -T "GENRE=%genre%" -T "ALBUMARTIST=%albumartist%" -T "ALBUM ARTIST=%albumartist%" -T "COMMENT=EAC Secure Mode, Test & Copy, AccurateRip, FLAC -8" %source%
TOC of the extracted CD
Track | Start | Length | Start sector | End sector
---------------------------------------------------------
1 | 0:00.00 | 6:31.11 | 0 | 29335
2 | 6:31.11 | 6:08.39 | 29336 | 56974
3 | 12:39.50 | 8:43.65 | 56975 | 96264
4 | 21:23.40 | 9:51.27 | 96265 | 140616
5 | 31:14.67 | 6:34.69 | 140617 | 170235
6 | 37:49.61 | 8:41.55 | 170236 | 209365
7 | 46:31.41 | 6:31.59 | 209366 | 238749
8 | 53:03.25 | 5:55.65 | 238750 | 265439
9 | 58:59.15 | 8:09.33 | 265440 | 302147
10 | 67:08.48 | 6:25.50 | 302148 | 331072
Track 1
Filename C:\Users\paul\AppData\Local\VirtualStore\Program Files (x86)\Exact Audio Copy\Flac\01 - Miami Sound Machine - Dr Beat (Long Version).wav
Pre-gap length 0:00:02.00
Peak level 99.0 %
Extraction speed 2.7 X
Track quality 100.0 %
Test CRC F60B2E0F
Copy CRC F60B2E0F
Accurately ripped (confidence 8) [39706329] (AR v2)
Copy OK
Track 2
Filename C:\Users\paul\AppData\Local\VirtualStore\Program Files (x86)\Exact Audio Copy\Flac\02 - Pointer Sisters - Automatic (12'' Special Remix).wav
Pre-gap length 0:00:02.00
Peak level 98.5 %
Extraction speed 2.5 X
Track quality 99.9 %
Test CRC ECA78CE5
Copy CRC ECA78CE5
Accurately ripped (confidence 8) [8F84E7C4] (AR v2)
Copy OK
Track 3
Filename C:\Users\paul\AppData\Local\VirtualStore\Program Files (x86)\Exact Audio Copy\Flac\03 - Cherelle & Alexander O'neal - Saturday Love (12'' Version).wav
Pre-gap length 0:00:02.00
Peak level 97.6 %
Extraction speed 3.0 X
Track quality 99.9 %
Test CRC 00B5204E
Copy CRC 00B5204E
Accurately ripped (confidence 8) [5831B9FF] (AR v2)
Copy OK
Track 4
Filename C:\Users\paul\AppData\Local\VirtualStore\Program Files (x86)\Exact Audio Copy\Flac\04 - Odyssey - Going Back To My Roots (12'' Roots Suite).wav
Pre-gap length 0:00:02.00
Peak level 99.3 %
Extraction speed 3.9 X
Track quality 100.0 %
Test CRC 2E0E4B8D
Copy CRC 2E0E4B8D
Accurately ripped (confidence 8) [2619FA41] (AR v2)
Copy OK
Track 5
Filename C:\Users\paul\AppData\Local\VirtualStore\Program Files (x86)\Exact Audio Copy\Flac\05 - Bill Withers - Lovely Day (88 Remix 12'' Version).wav
Pre-gap length 0:00:02.00
Peak level 98.6 %
Extraction speed 4.1 X
Track quality 100.0 %
Test CRC 3ED32F17
Copy CRC 3ED32F17
Accurately ripped (confidence 8) [B487276A] (AR v2)
Copy OK
Track 6
Filename C:\Users\paul\AppData\Local\VirtualStore\Program Files (x86)\Exact Audio Copy\Flac\06 - Terence Trent D'arby - Dance Little Sister (Ttd's Remix).wav
Pre-gap length 0:00:02.00
Peak level 98.5 %
Extraction speed 4.5 X
Track quality 100.0 %
Test CRC 1AB4E33F
Copy CRC 1AB4E33F
Accurately ripped (confidence 8) [2FC06034] (AR v2)
Copy OK
Track 7
Filename C:\Users\paul\AppData\Local\VirtualStore\Program Files (x86)\Exact Audio Copy\Flac\07 - James Brown - Living In America (Extended R&B Dance Mix).wav
Pre-gap length 0:00:02.00
Peak level 98.5 %
Extraction speed 4.7 X
Track quality 100.0 %
Test CRC E0EDA180
Copy CRC E0EDA180
Accurately ripped (confidence 8) [C0E147A0] (AR v2)
Copy OK
Track 8
Filename C:\Users\paul\AppData\Local\VirtualStore\Program Files (x86)\Exact Audio Copy\Flac\08 - Five Star - System Addict (M&M Remix).wav
Pre-gap length 0:00:02.00
Peak level 98.4 %
Extraction speed 3.9 X
Track quality 99.9 %
Test CRC 058EA89B
Copy CRC 058EA89B
Accurately ripped (confidence 8) [5D907673] (AR v2)
Copy OK
Track 9
Filename C:\Users\paul\AppData\Local\VirtualStore\Program Files (x86)\Exact Audio Copy\Flac\09 - Billy Ocean - Loverboy (12'' Extended Mix).wav
Pre-gap length 0:00:02.00
Peak level 98.7 %
Extraction speed 5.1 X
Track quality 100.0 %
Test CRC FE2E97C3
Copy CRC FE2E97C3
Accurately ripped (confidence 8) [26B39E23] (AR v2)
Copy OK
Track 10
Filename C:\Users\paul\AppData\Local\VirtualStore\Program Files (x86)\Exact Audio Copy\Flac\10 - Imagination - Just An Illusion (Extended Version).wav
Pre-gap length 0:00:02.00
Peak level 98.5 %
Extraction speed 5.2 X
Track quality 100.0 %
Test CRC 9CD89406
Copy CRC 9CD89406
Accurately ripped (confidence 10) [A0B5083D] (AR v2)
Copy OK
All tracks accurately ripped
No errors occurred
End of status report
---- CUETools DB Plugin V2.1.4
[CTDB TOCID: q.9XHnK8SfCecQWa9mCpLC_DdMg-] found
Submit result: q.9XHnK8SfCecQWa9mCpLC_DdMg- has been confirmed
Track | CTDB Status
1 | (19/19) Accurately ripped
2 | (19/19) Accurately ripped
3 | (19/19) Accurately ripped
4 | (19/19) Accurately ripped
5 | (19/19) Accurately ripped
6 | (19/19) Accurately ripped
7 | (19/19) Accurately ripped
8 | (19/19) Accurately ripped
9 | (19/19) Accurately ripped
10 | (19/19) Accurately ripped
==== Log checksum BACA9A4DD752416E174060F4FEA147A8BAF069077D65B64BE9B90AF91B2B6114 ====
Содержание индексной карты (.CUE)
 REM DATE 2016
REM GENRE Electronic
REM DISCID 8B113E0A
REM COMMENT "ExactAudioCopy v1.0b4"
PERFORMER "Various Artists"
TITLE "Twelve Inch Eighties: People Hold On [CD3]"
FILE "01 - Miami Sound Machine - Dr Beat (Long Version).wav" WAVE
TRACK 01 AUDIO
TITLE "Dr Beat (Long Version)"
PERFORMER "Miami Sound Machine"
INDEX 01 00:00:00
TRACK 02 AUDIO
TITLE "Automatic (12″ Special Remix)"
PERFORMER "Pointer Sisters"
INDEX 00 06:29:11
FILE "02 - Pointer Sisters - Automatic (12″ Special Remix).wav" WAVE
INDEX 01 00:00:00
TRACK 03 AUDIO
TITLE "Saturday Love (12″ Version)"
PERFORMER "Cherelle & Alexander O'neal"
INDEX 00 06:06:39
FILE "03 - Cherelle & Alexander O'neal - Saturday Love (12″ Version).wav" WAVE
INDEX 01 00:00:00
TRACK 04 AUDIO
TITLE "Going Back To My Roots (12″ Roots Suite)"
PERFORMER "Odyssey"
INDEX 00 08:41:65
FILE "04 - Odyssey - Going Back To My Roots (12″ Roots Suite).wav" WAVE
INDEX 01 00:00:00
TRACK 05 AUDIO
TITLE "Lovely Day (88 Remix 12″ Version)"
PERFORMER "Bill Withers"
INDEX 00 09:49:27
FILE "05 - Bill Withers - Lovely Day (88 Remix 12″ Version).wav" WAVE
INDEX 01 00:00:00
TRACK 06 AUDIO
TITLE "Dance Little Sister (Ttd's Remix)"
PERFORMER "Terence Trent D'arby"
INDEX 00 06:32:69
FILE "06 - Terence Trent D'arby - Dance Little Sister (Ttd's Remix).wav" WAVE
INDEX 01 00:00:00
TRACK 07 AUDIO
TITLE "Living In America (Extended R&B Dance Mix)"
PERFORMER "James Brown"
INDEX 00 08:39:55
FILE "07 - James Brown - Living In America (Extended R&B Dance Mix).wav" WAVE
INDEX 01 00:00:00
TRACK 08 AUDIO
TITLE "System Addict (M&M Remix)"
PERFORMER "Five Star"
INDEX 00 06:29:59
FILE "08 - Five Star - System Addict (M&M Remix).wav" WAVE
INDEX 01 00:00:00
TRACK 09 AUDIO
TITLE "Loverboy (12″ Extended Mix)"
PERFORMER "Billy Ocean"
INDEX 00 05:53:65
FILE "09 - Billy Ocean - Loverboy (12″ Extended Mix).wav" WAVE
INDEX 01 00:00:00
TRACK 10 AUDIO
TITLE "Just An Illusion (Extended Version)"
PERFORMER "Imagination"
INDEX 00 08:07:33
FILE "10 - Imagination - Just An Illusion (Extended Version).wav" WAVE
INDEX 01 00:00:00
 Exact Audio Copy V1.0 beta 4 from 7. December 2014
EAC extraction logfile from 19. September 2016, 18:42
Various Artists / 12 Inch Eighties: People Hold On [CD3]
Used drive : MATSHITADVD-RAM UJ8D2Q Adapter: 1 ID: 0
Read mode : Secure
Utilize accurate stream : Yes
Defeat audio cache : Yes
Make use of C2 pointers : No
Read offset correction : 103
Overread into Lead-In and Lead-Out : No
Fill up missing offset samples with silence : Yes
Delete leading and trailing silent blocks : No
Null samples used in CRC calculations : Yes
Used interface : Native Win32 interface for Win NT & 2000
Gap handling : Appended to previous track
Used output format : User Defined Encoder
Selected bitrate : 896 kBit/s
Quality : High
Add ID3 tag : No
Command line compressor : C:\Program Files (x86)\Exact Audio Copy\Flac\flac.exe
Additional command line options : -8 -V -T "ARTIST=%artist%" -T "TITLE=%title%" -T "ALBUM=%albumtitle%" -T "DATE=%year%" -T "TRACKNUMBER=%tracknr%" -T "TOTALTRACKS=%numtracks%" -T "GENRE=%genre%" -T "ALBUMARTIST=%albumartist%" -T "ALBUM ARTIST=%albumartist%" -T "COMMENT=EAC Secure Mode, Test & Copy, AccurateRip, FLAC -8" %source%
TOC of the extracted CD
Track | Start | Length | Start sector | End sector
---------------------------------------------------------
1 | 0:00.00 | 6:31.11 | 0 | 29335
2 | 6:31.11 | 6:08.39 | 29336 | 56974
3 | 12:39.50 | 8:43.65 | 56975 | 96264
4 | 21:23.40 | 9:51.27 | 96265 | 140616
5 | 31:14.67 | 6:34.69 | 140617 | 170235
6 | 37:49.61 | 8:41.55 | 170236 | 209365
7 | 46:31.41 | 6:31.59 | 209366 | 238749
8 | 53:03.25 | 5:55.65 | 238750 | 265439
9 | 58:59.15 | 8:09.33 | 265440 | 302147
10 | 67:08.48 | 6:25.50 | 302148 | 331072
Track 1
Filename C:\Users\paul\AppData\Local\VirtualStore\Program Files (x86)\Exact Audio Copy\Flac\01 - Miami Sound Machine - Dr Beat (Long Version).wav
Pre-gap length 0:00:02.00
Peak level 99.0 %
Extraction speed 2.7 X
Track quality 100.0 %
Test CRC F60B2E0F
Copy CRC F60B2E0F
Accurately ripped (confidence 8) [39706329] (AR v2)
Copy OK
Track 2
Filename C:\Users\paul\AppData\Local\VirtualStore\Program Files (x86)\Exact Audio Copy\Flac\02 - Pointer Sisters - Automatic (12'' Special Remix).wav
Pre-gap length 0:00:02.00
Peak level 98.5 %
Extraction speed 2.5 X
Track quality 99.9 %
Test CRC ECA78CE5
Copy CRC ECA78CE5
Accurately ripped (confidence 8) [8F84E7C4] (AR v2)
Copy OK
Track 3
Filename C:\Users\paul\AppData\Local\VirtualStore\Program Files (x86)\Exact Audio Copy\Flac\03 - Cherelle & Alexander O'neal - Saturday Love (12'' Version).wav
Pre-gap length 0:00:02.00
Peak level 97.6 %
Extraction speed 3.0 X
Track quality 99.9 %
Test CRC 00B5204E
Copy CRC 00B5204E
Accurately ripped (confidence 8) [5831B9FF] (AR v2)
Copy OK
Track 4
Filename C:\Users\paul\AppData\Local\VirtualStore\Program Files (x86)\Exact Audio Copy\Flac\04 - Odyssey - Going Back To My Roots (12'' Roots Suite).wav
Pre-gap length 0:00:02.00
Peak level 99.3 %
Extraction speed 3.9 X
Track quality 100.0 %
Test CRC 2E0E4B8D
Copy CRC 2E0E4B8D
Accurately ripped (confidence 8) [2619FA41] (AR v2)
Copy OK
Track 5
Filename C:\Users\paul\AppData\Local\VirtualStore\Program Files (x86)\Exact Audio Copy\Flac\05 - Bill Withers - Lovely Day (88 Remix 12'' Version).wav
Pre-gap length 0:00:02.00
Peak level 98.6 %
Extraction speed 4.1 X
Track quality 100.0 %
Test CRC 3ED32F17
Copy CRC 3ED32F17
Accurately ripped (confidence 8) [B487276A] (AR v2)
Copy OK
Track 6
Filename C:\Users\paul\AppData\Local\VirtualStore\Program Files (x86)\Exact Audio Copy\Flac\06 - Terence Trent D'arby - Dance Little Sister (Ttd's Remix).wav
Pre-gap length 0:00:02.00
Peak level 98.5 %
Extraction speed 4.5 X
Track quality 100.0 %
Test CRC 1AB4E33F
Copy CRC 1AB4E33F
Accurately ripped (confidence 8) [2FC06034] (AR v2)
Copy OK
Track 7
Filename C:\Users\paul\AppData\Local\VirtualStore\Program Files (x86)\Exact Audio Copy\Flac\07 - James Brown - Living In America (Extended R&B Dance Mix).wav
Pre-gap length 0:00:02.00
Peak level 98.5 %
Extraction speed 4.7 X
Track quality 100.0 %
Test CRC E0EDA180
Copy CRC E0EDA180
Accurately ripped (confidence 8) [C0E147A0] (AR v2)
Copy OK
Track 8
Filename C:\Users\paul\AppData\Local\VirtualStore\Program Files (x86)\Exact Audio Copy\Flac\08 - Five Star - System Addict (M&M Remix).wav
Pre-gap length 0:00:02.00
Peak level 98.4 %
Extraction speed 3.9 X
Track quality 99.9 %
Test CRC 058EA89B
Copy CRC 058EA89B
Accurately ripped (confidence 8) [5D907673] (AR v2)
Copy OK
Track 9
Filename C:\Users\paul\AppData\Local\VirtualStore\Program Files (x86)\Exact Audio Copy\Flac\09 - Billy Ocean - Loverboy (12'' Extended Mix).wav
Pre-gap length 0:00:02.00
Peak level 98.7 %
Extraction speed 5.1 X
Track quality 100.0 %
Test CRC FE2E97C3
Copy CRC FE2E97C3
Accurately ripped (confidence 8) [26B39E23] (AR v2)
Copy OK
Track 10
Filename C:\Users\paul\AppData\Local\VirtualStore\Program Files (x86)\Exact Audio Copy\Flac\10 - Imagination - Just An Illusion (Extended Version).wav
Pre-gap length 0:00:02.00
Peak level 98.5 %
Extraction speed 5.2 X
Track quality 100.0 %
Test CRC 9CD89406
Copy CRC 9CD89406
Accurately ripped (confidence 10) [A0B5083D] (AR v2)
Copy OK
All tracks accurately ripped
No errors occurred
End of status report
---- CUETools DB Plugin V2.1.4
[CTDB TOCID: q.9XHnK8SfCecQWa9mCpLC_DdMg-] found
Submit result: q.9XHnK8SfCecQWa9mCpLC_DdMg- has been confirmed
Track | CTDB Status
1 | (19/19) Accurately ripped
2 | (19/19) Accurately ripped
3 | (19/19) Accurately ripped
4 | (19/19) Accurately ripped
5 | (19/19) Accurately ripped
6 | (19/19) Accurately ripped
7 | (19/19) Accurately ripped
8 | (19/19) Accurately ripped
9 | (19/19) Accurately ripped
10 | (19/19) Accurately ripped
==== Log checksum BACA9A4DD752416E174060F4FEA147A8BAF069077D65B64BE9B90AF91B2B6114 ====
 REM DATE 2016
REM GENRE Electronic
REM DISCID 8B113E0A
REM COMMENT "ExactAudioCopy v1.0b4"
PERFORMER "Various Artists"
TITLE "Twelve Inch Eighties: People Hold On [CD3]"
FILE "01 - Miami Sound Machine - Dr Beat (Long Version).wav" WAVE
TRACK 01 AUDIO
TITLE "Dr Beat (Long Version)"
PERFORMER "Miami Sound Machine"
INDEX 01 00:00:00
TRACK 02 AUDIO
TITLE "Automatic (12″ Special Remix)"
PERFORMER "Pointer Sisters"
INDEX 00 06:29:11
FILE "02 - Pointer Sisters - Automatic (12″ Special Remix).wav" WAVE
INDEX 01 00:00:00
TRACK 03 AUDIO
TITLE "Saturday Love (12″ Version)"
PERFORMER "Cherelle & Alexander O'neal"
INDEX 00 06:06:39
FILE "03 - Cherelle & Alexander O'neal - Saturday Love (12″ Version).wav" WAVE
INDEX 01 00:00:00
TRACK 04 AUDIO
TITLE "Going Back To My Roots (12″ Roots Suite)"
PERFORMER "Odyssey"
INDEX 00 08:41:65
FILE "04 - Odyssey - Going Back To My Roots (12″ Roots Suite).wav" WAVE
INDEX 01 00:00:00
TRACK 05 AUDIO
TITLE "Lovely Day (88 Remix 12″ Version)"
PERFORMER "Bill Withers"
INDEX 00 09:49:27
FILE "05 - Bill Withers - Lovely Day (88 Remix 12″ Version).wav" WAVE
INDEX 01 00:00:00
TRACK 06 AUDIO
TITLE "Dance Little Sister (Ttd's Remix)"
PERFORMER "Terence Trent D'arby"
INDEX 00 06:32:69
FILE "06 - Terence Trent D'arby - Dance Little Sister (Ttd's Remix).wav" WAVE
INDEX 01 00:00:00
TRACK 07 AUDIO
TITLE "Living In America (Extended R&B Dance Mix)"
PERFORMER "James Brown"
INDEX 00 08:39:55
FILE "07 - James Brown - Living In America (Extended R&B Dance Mix).wav" WAVE
INDEX 01 00:00:00
TRACK 08 AUDIO
TITLE "System Addict (M&M Remix)"
PERFORMER "Five Star"
INDEX 00 06:29:59
FILE "08 - Five Star - System Addict (M&M Remix).wav" WAVE
INDEX 01 00:00:00
TRACK 09 AUDIO
TITLE "Loverboy (12″ Extended Mix)"
PERFORMER "Billy Ocean"
INDEX 00 05:53:65
FILE "09 - Billy Ocean - Loverboy (12″ Extended Mix).wav" WAVE
INDEX 01 00:00:00
TRACK 10 AUDIO
TITLE "Just An Illusion (Extended Version)"
PERFORMER "Imagination"
INDEX 00 08:07:33
FILE "10 - Imagination - Just An Illusion (Extended Version).wav" WAVE
INDEX 01 00:00:00
Twelve Inch Eighties is the new 3CD range by Crimson Productions, compiling extended alternate mixes of some of the biggest hit singles of the 80s. Each themed release is housed in a sleek 3CD digipak with abstract imagery representative of early dance label releases. These carefully selected titles across the range will bring together the finest eighties pop, dance and disco, amongst other genres, in all their full 12” single glory.
People Hold On is a collection of some of the biggest 80s dance classics in their full extended 12” form, keeping you on the floor for longer.
Features 30 heavy hitters by the likes of Coldcut, S’Express, Luther Vandross, James Brown and many more…
Contains 15x Top 10, 8x Top 20 and 3x Top 40 UK Chart singles.
Many hit records exclusively licensed from Sony Music Entertainment UK Limited.

[1.42 GB] Скачать / Download