(Synthpop) Galaxy Hunter - Quantum Of Galaxy - 2012, FLAC (image+.cue), lossless - Скачать

Жанр: Synthpop
Носитель: CD
Год издания: 2012
Издатель (лейбл): Xdvisions
Номер по каталогу: xdv0003
Аудиокодек: FLAC (*.flac)
Тип рипа: image+.cue
Битрейт аудио: lossless
Продолжительность: 00:54:24
Источник (релизер): Собственный рип
Наличие сканов в содержимом раздачи: да
Треклист:
01 Intro
02 20th Century
03 Traveller
04 Extraterrestrial
05 Kandahar
06 Skyhawk Raid
07 Synthetique Dreams
08 Living A Fantasy
09 Voyager Of Eons
10 La Marea
11 Lady Love
12 Outro
13 Sunset Blvd.
14 L.A.P.D.

торрент, трек, pop-music, pop, torrent, композиции, поп-музыка, download, поп, бесплатно, soundtrack, альбом, песни, cd, mp3, скачать, высокое качество, дискография, музыка, альбом, lossless

 Exact Audio Copy V1.0 beta 3 from 29. August 2011
Отчёт EAC об извлечении, выполненном 10. июля 2014, 9:18
Galaxy Hunter / Quantum Of Galaxy (CDA)
Дисковод: hp CDDVDW TS-L633N Adapter: 0 ID: 1
Режим чтения : Достоверность
Использование точного потока : Да
Отключение кэша аудио : Да
Использование указателей C2 : Нет
Коррекция смещения при чтении : 6
Способность читать области Lead-in и Lead-out : Нет
Заполнение пропущенных сэмплов тишиной : Да
Удаление блоков с тишиной в начале и конце : Нет
При вычислениях CRC использовались нулевые сэмплы : Да
Интерфейс : Встроенный Win32-интерфейс для Win NT/2000
Выходной формат : Пользовательский кодировщик
Выбранный битрейт : 128 kBit/s
Качество : Высокий
Добавление ID3-тега : Нет
Утилита сжатия : C:\Program Files (x86)\Exact Audio Copy\FLAC\FLAC.EXE
Дополнительные параметры : -V -8 -T "Date=%year%" -T "Genre=%genre%" %source%
TOC извлечённого CD
Трек | Старт | Длительность | Начальный сектор | Конечный сектор
---------------------------------------------------------------------
1 | 0:00.00 | 1:15.63 | 0 | 5687
2 | 1:15.63 | 4:07.27 | 5688 | 24239
3 | 5:23.15 | 4:46.72 | 24240 | 45761
4 | 10:10.12 | 5:07.34 | 45762 | 68820
5 | 15:17.46 | 4:47.45 | 68821 | 90390
6 | 20:05.16 | 3:53.05 | 90391 | 107870
7 | 23:58.21 | 5:13.47 | 107871 | 131392
8 | 29:11.68 | 4:19.10 | 131393 | 150827
9 | 33:31.03 | 5:11.35 | 150828 | 174187
10 | 38:42.38 | 4:08.47 | 174188 | 192834
11 | 42:51.10 | 3:57.27 | 192835 | 210636
12 | 46:48.37 | 1:00.36 | 210637 | 215172
13 | 47:48.73 | 2:48.31 | 215173 | 227803
14 | 50:37.29 | 3:46.43 | 227804 | 244796
Характеристики диапазона извлечения и сообщения об ошибках
Выбранный диапазон
Имя файла C:\Users\Arachnid\Desktop\Galaxy Hunter - Quantum Of Galaxy (CDA).wav
Пиковый уровень 98.9 %
Скорость извлечения 3.8 X
Качество диапазона 100.0 %
CRC теста EAE25968
CRC копии EAE25968
Копирование... OK
Ошибок не произошло
AccurateRip: сводка
Трек 1 : извлечено точно (доверие 1) [BD02108D] (AR v2)
Трек 2 : извлечено точно (доверие 1) [E9AAB131] (AR v2)
Трек 3 : извлечено точно (доверие 1) [DEC1D00F] (AR v2)
Трек 4 : извлечено точно (доверие 1) [10FB0C60] (AR v2)
Трек 5 : извлечено точно (доверие 1) [E66BAC3D] (AR v2)
Трек 6 : извлечено точно (доверие 1) [1990EC54] (AR v2)
Трек 7 : извлечено точно (доверие 1) [362263BC] (AR v2)
Трек 8 : извлечено точно (доверие 1) [3C893A68] (AR v2)
Трек 9 : извлечено точно (доверие 1) [0B3998F6] (AR v2)
Трек 10 : извлечено точно (доверие 1) [63F16854] (AR v2)
Трек 11 : извлечено точно (доверие 1) [A58009C8] (AR v2)
Трек 12 : извлечено точно (доверие 1) [F6505734] (AR v2)
Трек 13 : извлечено точно (доверие 1) [3949542F] (AR v2)
Трек 14 : извлечено точно (доверие 1) [06C3B549] (AR v2)
Все треки извлечены точно
Конец отчёта
==== Контрольная сумма отчёта DDED424F3B298BBD74A2530F1B5B4959CD8EAE67E8BBA3F56D63C0618358F67C ====

[427.4 MB] Скачать / Download