Thomas Anders - Charity Christmas Concert in Vallendar - Скачать

Страна: Германия
Жанр: Eurodisco
Продолжительность: 01:01:59
Год выпуска: 2014 г.
Лейбл: Фан-Видео
Описание: Рождественский концерт Томаса Андерса
Треклист:
1. It's The Most Wonderful Time Of The Year
2. Let It Snow
3. Winter Wonderland
4. Can You Hear The Snowflakes Falling
5. Silverbells
6. The Christmas Song
7. Sleigh Ride
8. Rudolph the Red-Nosed Reindeer
9. Santa Claus Is Coming To Town
10. Christmas Is Just Around The Corner
11. It Must Have Been The Mistletone
12. Last Christmas
13. A Christmas Love Song
14. Kisses For Christmas
15. Es ist Ein Ros’ Entsprungen
16. I'll Be Home For Christmas
17. Tannenbaum
18. Süßer Die Glocken Nie Klingen
19. Du Frohliche
20. Silent Night (Stille Nacht)
21. It's Just Another New Year's Eve
Разбивка на главы по трекам: есть
Качество: DVD5 (custom)
Формат: DVD video
Видео кодек: MPEG2
Аудио кодек: AC3
Видео: MPEG2 720x480 (16:9) 6 594 Kbps 29.97fps
Аудио: Dolby AC3 192kbps 48000Hz stereo

бесплатно, песни, поп, торрент, альбом, torrent, композиции, cd, поп-музыка, скачать, lossless, дискография, музыка, mp3, pop, трек, download, soundtrack, альбом, pop-music, высокое качество

 Format : MPEG-PS
File size : 1 000 MiB
Duration : 20mn 11s
Overall bit rate mode : Variable
Overall bit rate : 6 924 Kbps
Video
ID : 224 (0xE0)
Format : MPEG Video
Format version : Version 2
Format profile : [email protected]
Format settings, BVOP : No
Format settings, Matrix : Default
Format settings, GOP : M=3, N=15
Duration : 20mn 11s
Bit rate mode : Variable
Bit rate : 6 594 Kbps
Maximum bit rate : 9 586 Kbps
Width : 720 pixels
Height : 480 pixels
Display aspect ratio : 16:9
Frame rate : 29.970 fps
Standard : NTSC
Color space : YUV
Chroma subsampling : 4:2:0
Bit depth : 8 bits
Scan type : Interlaced
Scan order : Bottom Field First
Compression mode : Lossy
Bits/(Pixel*Frame) : 0.637
Time code of first frame : 00:00:00;00
Time code source : Group of pictures header
Stream size : 953 MiB (95%)
Audio
ID : 189 (0xBD)-128 (0x80)
Format : AC-3
Format/Info : Audio Coding 3
Mode extension : CM (complete main)
Format settings, Endianness : Big
Muxing mode : DVD-Video
Duration : 20mn 11s
Bit rate mode : Constant
Bit rate : 192 Kbps
Channel count : 2 channels
Channel positions : Front: L R
Sampling rate : 48.0 KHz
Bit depth : 16 bits
Compression mode : Lossy
Stream size : 27.7 MiB (3%)
Menu

[2.95 GB] Скачать / Download