Tina Turner - Simply The Best - Скачать

Страна: USA
Жанр: Pop,Rock
Продолжительность: 01:29:57
Год выпуска: 2002 г.
Лейбл: Capitol
Описание: DVD-коллекция наиболее известных хитов Тины Тернер, названной в прессе "самой динамичной певицей в истории музыки".
Треклист:
01. The Best
02. Better Be Good To Me
03. I Can't Stand The Rain
04. What's Love Got To Do With It
05. Typical Male
06. Private Dancer
07. We Don't Need Another Hero
08. What You Get Is What You See
09. I Don't Wanna Lose You
10. Look Me In The Heart
11. Addicted To Love
12. Steamy Windows
13. Break Every Rule
14. Foreign Affair
15. Tonight
16. Let's Stay Together
17. Be Tender With Me Baby
18. It Takes Two
19. Nutbush City Limits
20. Love Thing
21. What's Love Got To Do With It (Secret Version, Black & White)
Доп. информация:http://www.amazon.co.uk/Simply-Best-Collection-Region-Import/dp/B00006JDR4/ref=sr...15216&sr=1-1
Разбивка на главы по трекам: есть
Качество: DVD5
Формат: DVD video
Видео кодек: MPEG2
Аудио кодек: AC3
Видео: NTSC 4:3 (720x480) VBR
Аудио: English (Dolby AC3, 2 ch) (L,R) ch, 192 kbps, Delay 0 mSec
Аудио2: English (Dolby AC3, 6 ch) (L,C,R,SL,SR)+LFE ch, 448 kbps, Delay 0 mSec

торрент, музыка, поп, альбом, mp3, бесплатно, pop, песни, дискография, альбом, высокое качество, трек, lossless, скачать, pop-music, download, композиции, torrent, soundtrack, поп-музыка, cd

 Общее
Полное имя : D:\Razdaca\Tina Turner - Simply The Best\VIDEO_TS\VIDEO_TS.BUP
Формат : DVD Video
Профиль формата : Menu
Размер файла : 14,0 Кбайт
Режим общего битрейта : Переменный
Видео
Идентификатор : 224 (0xE0)
Формат : MPEG Video
Версия формата : Version 2
Вид битрейта : Переменный
Ширина : 720 пикселей
Высота : 480 пикселей
Соотношение сторон : 4:3
Частота кадров : 29,970 кадров/сек
Стандарт вещания : NTSC
Метод сжатия : С потерями
Аудио
Формат : AC-3
Формат/Информация : Audio Coding 3
Каналы : 2 канала
Частота : 48,0 КГц
Метод сжатия : С потерями
Текст
Формат : RLE
Формат/Информация : Run-length encoding
Битовая глубина : 2 бит
Общее
Полное имя : D:\Razdaca\Tina Turner - Simply The Best\VIDEO_TS\VIDEO_TS.IFO
Формат : DVD Video
Профиль формата : Menu
Размер файла : 14,0 Кбайт
Режим общего битрейта : Переменный
Видео
Идентификатор : 224 (0xE0)
Формат : MPEG Video
Версия формата : Version 2
Вид битрейта : Переменный
Ширина : 720 пикселей
Высота : 480 пикселей
Соотношение сторон : 4:3
Частота кадров : 29,970 кадров/сек
Стандарт вещания : NTSC
Метод сжатия : С потерями
Аудио
Формат : AC-3
Формат/Информация : Audio Coding 3
Каналы : 2 канала
Частота : 48,0 КГц
Метод сжатия : С потерями
Текст
Формат : RLE
Формат/Информация : Run-length encoding
Битовая глубина : 2 бит
Общее
Полное имя : D:\Razdaca\Tina Turner - Simply The Best\VIDEO_TS\VIDEO_TS.VOB
Формат : MPEG-PS
Размер файла : 7,83 Мбайт
Продолжительность : 17 с.
Режим общего битрейта : Переменный
Общий поток : 3784 Кбит/сек
Видео
Идентификатор : 224 (0xE0)
Формат : MPEG Video
Версия формата : Version 2
Профиль формата : [email protected]
Параметр BVOP формата : Да
Параметр матрицы формата : Выборочная
Продолжительность : 17 с.
Вид битрейта : Переменный
Битрейт : 3324 Кбит/сек
Максимальный битрейт : 9800 Кбит/сек
Ширина : 720 пикселей
Высота : 480 пикселей
Соотношение сторон : 4:3
Частота кадров : 29,970 кадров/сек
Стандарт вещания : NTSC
Цветовое пространство : YUV
Субдискретизация насыщенности : 4:2:0
Битовая глубина : 8 бит
Тип развёртки : Чересстрочная
Порядок развёртки : Верхнее поле первое
Метод сжатия : С потерями
Бит/(Пиксели*Кадры) : 0.321
Размер потока : 6,88 Мбайт (88%)
Аудио
Идентификатор : 189 (0xBD)-128 (0x80)
Формат : AC-3
Формат/Информация : Audio Coding 3
Расширение режима : CM (complete main)
Режим смешивания : DVD-Video
Продолжительность : 4 с. 733 мс.
Вид битрейта : Постоянный
Битрейт : 384 Кбит/сек
Каналы : 6 каналов
Расположение каналов : Front: L C R, Side: L R, LFE
Частота : 48,0 КГц
Битовая глубина : 16 бит
Метод сжатия : С потерями
Размер потока : 222 Кбайт (3%)
Текст
Идентификатор : 189 (0xBD)-32 (0x20)
Формат : RLE
Формат/Информация : Run-length encoding
Режим смешивания : DVD-Video
Продолжительность : 3 с. 670 мс.
Задержка видео : -4 мс.
Меню
Общее
Полное имя : D:\Razdaca\Tina Turner - Simply The Best\VIDEO_TS\VTS_01_0.BUP
Формат : DVD Video
Профиль формата : Program
Размер файла : 112 Кбайт
Продолжительность : 1 ч. 29 м.
Режим общего битрейта : Переменный
Общий поток : 169 бит/сек
Видео
Идентификатор : 224 (0xE0)
Формат : MPEG Video
Версия формата : Version 2
Продолжительность : 1 ч. 29 м.
Вид битрейта : Переменный
Ширина : 720 пикселей
Высота : 480 пикселей
Соотношение сторон : 4:3
Частота кадров : 29,970 кадров/сек
Стандарт вещания : NTSC
Метод сжатия : С потерями
Аудио #1
Идентификатор : 128 (0x80)
Формат : AC-3
Формат/Информация : Audio Coding 3
Продолжительность : 1 ч. 29 м.
Каналы : 2 канала
Частота : 48,0 КГц
Метод сжатия : С потерями
Язык : English
Аудио #2
Идентификатор : 129 (0x81)
Формат : AC-3
Формат/Информация : Audio Coding 3
Продолжительность : 1 ч. 29 м.
Каналы : 6 каналов
Частота : 48,0 КГц
Метод сжатия : С потерями
Язык : English
Меню #1
Продолжительность : 1 ч. 29 м.
00:00:00.000 : Chapter 1
00:04:20.333 : Chapter 2
00:08:23.833 : Chapter 3
00:11:57.833 : Chapter 4
00:15:44.733 : Chapter 5
00:20:27.666 : Chapter 6
00:24:49.499 : Chapter 7
00:29:37.332 : Chapter 8
00:33:44.832 : Chapter 9
00:38:00.165 : Chapter 10
00:41:37.998 : Chapter 11
00:47:37.331 : Chapter 12
00:51:40.831 : Chapter 13
00:56:29.997 : Chapter 14
01:00:37.663 : Chapter 15
01:04:23.996 : Chapter 16
01:08:00.162 : Chapter 17
01:12:32.162 : Chapter 18
01:16:38.395 : Chapter 19
01:20:17.328 : Chapter 20
01:24:41.328 : Chapter 21
01:28:29.661 : Chapter 22
List (Audio) : 0 / 1
Меню #2
Продолжительность : 4 м. 21 с.
00:00:00.000 : Chapter 1
00:04:20.333 : Chapter 2
List (Audio) : 0 / 1
Меню #3
Продолжительность : 4 м. 4 с.
00:00:00.000 : Chapter 1
00:04:03.500 : Chapter 2
List (Audio) : 0 / 1
Меню #4
Продолжительность : 3 м. 35 с.
00:00:00.000 : Chapter 1
00:03:34.000 : Chapter 2
List (Audio) : 0 / 1
Меню #5
Продолжительность : 3 м. 48 с.
00:00:00.000 : Chapter 1
00:03:46.900 : Chapter 2
List (Audio) : 0 / 1
Меню #6
Продолжительность : 4 м. 44 с.
00:00:00.000 : Chapter 1
00:04:42.933 : Chapter 2
List (Audio) : 0 / 1
Меню #7
Продолжительность : 4 м. 23 с.
00:00:00.000 : Chapter 1
00:04:21.833 : Chapter 2
List (Audio) : 0 / 1
Меню #8
Продолжительность : 4 м. 49 с.
00:00:00.000 : Chapter 1
00:04:47.833 : Chapter 2
List (Audio) : 0 / 1
Меню #9
Продолжительность : 4 м. 8 с.
00:00:00.000 : Chapter 1
00:04:07.500 : Chapter 2
List (Audio) : 0 / 1
Меню #10
Продолжительность : 4 м. 16 с.
00:00:00.000 : Chapter 1
00:04:15.333 : Chapter 2
List (Audio) : 0 / 1
Меню #11
Продолжительность : 3 м. 39 с.
00:00:00.000 : Chapter 1
00:03:37.833 : Chapter 2
List (Audio) : 0 / 1
Меню #12
Продолжительность : 6 м. 0 с.
00:00:00.000 : Chapter 1
00:05:59.333 : Chapter 2
List (Audio) : 0 / 1
Меню #13
Продолжительность : 4 м. 4 с.
00:00:00.000 : Chapter 1
00:04:03.500 : Chapter 2
List (Audio) : 0 / 1
Меню #14
Продолжительность : 4 м. 50 с.
00:00:00.000 : Chapter 1
00:04:49.166 : Chapter 2
List (Audio) : 0 / 1
Меню #15
Продолжительность : 4 м. 9 с.
00:00:00.000 : Chapter 1
00:04:07.666 : Chapter 2
List (Audio) : 0 / 1
Меню #16
Продолжительность : 3 м. 47 с.
00:00:00.000 : Chapter 1
00:03:46.333 : Chapter 2
List (Audio) : 0 / 1
Меню #17
Продолжительность : 3 м. 37 с.
00:00:00.000 : Chapter 1
00:03:36.166 : Chapter 2
List (Audio) : 0 / 1
Меню #18
Продолжительность : 4 м. 33 с.
00:00:00.000 : Chapter 1
00:04:32.000 : Chapter 2
List (Audio) : 0 / 1
Меню #19
Продолжительность : 4 м. 7 с.
00:00:00.000 : Chapter 1
00:04:06.233 : Chapter 2
List (Audio) : 0 / 1
Меню #20
Продолжительность : 3 м. 40 с.
00:00:00.000 : Chapter 1
00:03:38.933 : Chapter 2
List (Audio) : 0 / 1
Меню #21
Продолжительность : 4 м. 25 с.
00:00:00.000 : Chapter 1
00:04:24.000 : Chapter 2
List (Audio) : 0 / 1
Меню #22
Продолжительность : 3 м. 49 с.
00:00:00.000 : Chapter 1
00:03:48.333 : Chapter 2
List (Audio) : 0 / 1
Общее
Полное имя : D:\Razdaca\Tina Turner - Simply The Best\VIDEO_TS\VTS_01_0.IFO
Формат : DVD Video
Профиль формата : Program
Размер файла : 112 Кбайт
Продолжительность : 1 ч. 29 м.
Режим общего битрейта : Переменный
Общий поток : 169 бит/сек
Видео
Идентификатор : 224 (0xE0)
Формат : MPEG Video
Версия формата : Version 2
Продолжительность : 1 ч. 29 м.
Вид битрейта : Переменный
Ширина : 720 пикселей
Высота : 480 пикселей
Соотношение сторон : 4:3
Частота кадров : 29,970 кадров/сек
Стандарт вещания : NTSC
Метод сжатия : С потерями
Аудио #1
Идентификатор : 128 (0x80)
Формат : AC-3
Формат/Информация : Audio Coding 3
Продолжительность : 1 ч. 29 м.
Каналы : 2 канала
Частота : 48,0 КГц
Метод сжатия : С потерями
Язык : English
Аудио #2
Идентификатор : 129 (0x81)
Формат : AC-3
Формат/Информация : Audio Coding 3
Продолжительность : 1 ч. 29 м.
Каналы : 6 каналов
Частота : 48,0 КГц
Метод сжатия : С потерями
Язык : English
Меню #1
Продолжительность : 1 ч. 29 м.
00:00:00.000 : Chapter 1
00:04:20.333 : Chapter 2
00:08:23.833 : Chapter 3
00:11:57.833 : Chapter 4
00:15:44.733 : Chapter 5
00:20:27.666 : Chapter 6
00:24:49.499 : Chapter 7
00:29:37.332 : Chapter 8
00:33:44.832 : Chapter 9
00:38:00.165 : Chapter 10
00:41:37.998 : Chapter 11
00:47:37.331 : Chapter 12
00:51:40.831 : Chapter 13
00:56:29.997 : Chapter 14
01:00:37.663 : Chapter 15
01:04:23.996 : Chapter 16
01:08:00.162 : Chapter 17
01:12:32.162 : Chapter 18
01:16:38.395 : Chapter 19
01:20:17.328 : Chapter 20
01:24:41.328 : Chapter 21
01:28:29.661 : Chapter 22
List (Audio) : 0 / 1
Меню #2
Продолжительность : 4 м. 21 с.
00:00:00.000 : Chapter 1
00:04:20.333 : Chapter 2
List (Audio) : 0 / 1
Меню #3
Продолжительность : 4 м. 4 с.
00:00:00.000 : Chapter 1
00:04:03.500 : Chapter 2
List (Audio) : 0 / 1
Меню #4
Продолжительность : 3 м. 35 с.
00:00:00.000 : Chapter 1
00:03:34.000 : Chapter 2
List (Audio) : 0 / 1
Меню #5
Продолжительность : 3 м. 48 с.
00:00:00.000 : Chapter 1
00:03:46.900 : Chapter 2
List (Audio) : 0 / 1
Меню #6
Продолжительность : 4 м. 44 с.
00:00:00.000 : Chapter 1
00:04:42.933 : Chapter 2
List (Audio) : 0 / 1
Меню #7
Продолжительность : 4 м. 23 с.
00:00:00.000 : Chapter 1
00:04:21.833 : Chapter 2
List (Audio) : 0 / 1
Меню #8
Продолжительность : 4 м. 49 с.
00:00:00.000 : Chapter 1
00:04:47.833 : Chapter 2
List (Audio) : 0 / 1
Меню #9
Продолжительность : 4 м. 8 с.
00:00:00.000 : Chapter 1
00:04:07.500 : Chapter 2
List (Audio) : 0 / 1
Меню #10
Продолжительность : 4 м. 16 с.
00:00:00.000 : Chapter 1
00:04:15.333 : Chapter 2
List (Audio) : 0 / 1
Меню #11
Продолжительность : 3 м. 39 с.
00:00:00.000 : Chapter 1
00:03:37.833 : Chapter 2
List (Audio) : 0 / 1
Меню #12
Продолжительность : 6 м. 0 с.
00:00:00.000 : Chapter 1
00:05:59.333 : Chapter 2
List (Audio) : 0 / 1
Меню #13
Продолжительность : 4 м. 4 с.
00:00:00.000 : Chapter 1
00:04:03.500 : Chapter 2
List (Audio) : 0 / 1
Меню #14
Продолжительность : 4 м. 50 с.
00:00:00.000 : Chapter 1
00:04:49.166 : Chapter 2
List (Audio) : 0 / 1
Меню #15
Продолжительность : 4 м. 9 с.
00:00:00.000 : Chapter 1
00:04:07.666 : Chapter 2
List (Audio) : 0 / 1
Меню #16
Продолжительность : 3 м. 47 с.
00:00:00.000 : Chapter 1
00:03:46.333 : Chapter 2
List (Audio) : 0 / 1
Меню #17
Продолжительность : 3 м. 37 с.
00:00:00.000 : Chapter 1
00:03:36.166 : Chapter 2
List (Audio) : 0 / 1
Меню #18
Продолжительность : 4 м. 33 с.
00:00:00.000 : Chapter 1
00:04:32.000 : Chapter 2
List (Audio) : 0 / 1
Меню #19
Продолжительность : 4 м. 7 с.
00:00:00.000 : Chapter 1
00:04:06.233 : Chapter 2
List (Audio) : 0 / 1
Меню #20
Продолжительность : 3 м. 40 с.
00:00:00.000 : Chapter 1
00:03:38.933 : Chapter 2
List (Audio) : 0 / 1
Меню #21
Продолжительность : 4 м. 25 с.
00:00:00.000 : Chapter 1
00:04:24.000 : Chapter 2
List (Audio) : 0 / 1
Меню #22
Продолжительность : 3 м. 49 с.
00:00:00.000 : Chapter 1
00:03:48.333 : Chapter 2
List (Audio) : 0 / 1
Общее
Полное имя : D:\Razdaca\Tina Turner - Simply The Best\VIDEO_TS\VTS_01_0.VOB
Формат : MPEG-PS
Размер файла : 48,0 Мбайт
Продолжительность : 1 м. 12 с.
Режим общего битрейта : Переменный
Общий поток : 5583 Кбит/сек
Видео
Идентификатор : 224 (0xE0)
Формат : MPEG Video
Версия формата : Version 2
Профиль формата : [email protected]
Параметр BVOP формата : Да
Параметр матрицы формата : Выборочная
Продолжительность : 1 м. 12 с.
Вид битрейта : Переменный
Битрейт : 5280 Кбит/сек
Максимальный битрейт : 9800 Кбит/сек
Ширина : 720 пикселей
Высота : 480 пикселей
Соотношение сторон : 4:3
Частота кадров : 29,970 кадров/сек
Стандарт вещания : NTSC
Цветовое пространство : YUV
Субдискретизация насыщенности : 4:2:0
Битовая глубина : 8 бит
Метод сжатия : С потерями
Бит/(Пиксели*Кадры) : 0.510
Размер потока : 45,4 Мбайт (95%)
Аудио
Идентификатор : 189 (0xBD)-128 (0x80)
Формат : AC-3
Формат/Информация : Audio Coding 3
Расширение режима : CM (complete main)
Режим смешивания : DVD-Video
Продолжительность : 1 м. 11 с.
Вид битрейта : Постоянный
Битрейт : 192 Кбит/сек
Каналы : 2 канала
Расположение каналов : Front: L R
Частота : 48,0 КГц
Битовая глубина : 16 бит
Метод сжатия : С потерями
Размер потока : 1,65 Мбайт (3%)
Текст
Идентификатор : 189 (0xBD)-32 (0x20)
Формат : RLE
Формат/Информация : Run-length encoding
Режим смешивания : DVD-Video
Задержка видео : 10 с.
Меню
Общее
Полное имя : D:\Razdaca\Tina Turner - Simply The Best\VIDEO_TS\VTS_01_1.VOB
Формат : MPEG-PS
Размер файла : 1024 Мбайт
Продолжительность : 21 м.
Режим общего битрейта : Переменный
Общий поток : 6618 Кбит/сек
Видео
Идентификатор : 224 (0xE0)
Формат : MPEG Video
Версия формата : Version 2
Профиль формата : [email protected]
Параметр BVOP формата : Да
Параметр матрицы формата : Выборочная
Продолжительность : 21 м.
Вид битрейта : Переменный
Битрейт : 5846 Кбит/сек
Максимальный битрейт : 9800 Кбит/сек
Ширина : 720 пикселей
Высота : 480 пикселей
Соотношение сторон : 4:3
Частота кадров : 29,970 кадров/сек
Стандарт вещания : NTSC
Цветовое пространство : YUV
Субдискретизация насыщенности : 4:2:0
Битовая глубина : 8 бит
Тип развёртки : Чересстрочная
Порядок развёртки : Верхнее поле первое
Метод сжатия : С потерями
Бит/(Пиксели*Кадры) : 0.564
Размер потока : 905 Мбайт (88%)
Аудио #1
Идентификатор : 189 (0xBD)-128 (0x80)
Формат : AC-3
Формат/Информация : Audio Coding 3
Расширение режима : CM (complete main)
Режим смешивания : DVD-Video
Продолжительность : 21 м.
Вид битрейта : Постоянный
Битрейт : 192 Кбит/сек
Каналы : 2 канала
Расположение каналов : Front: L R
Частота : 48,0 КГц
Битовая глубина : 16 бит
Метод сжатия : С потерями
Размер потока : 29,7 Мбайт (3%)
Аудио #2
Идентификатор : 189 (0xBD)-129 (0x81)
Формат : AC-3
Формат/Информация : Audio Coding 3
Расширение режима : CM (complete main)
Режим смешивания : DVD-Video
Продолжительность : 21 м.
Вид битрейта : Постоянный
Битрейт : 448 Кбит/сек
Каналы : 6 каналов
Расположение каналов : Front: L C R, Side: L R, LFE
Частота : 48,0 КГц
Битовая глубина : 16 бит
Метод сжатия : С потерями
Размер потока : 69,3 Мбайт (7%)
Меню
Общее
Полное имя : D:\Razdaca\Tina Turner - Simply The Best\VIDEO_TS\VTS_01_2.VOB
Формат : MPEG-PS
Размер файла : 1024 Мбайт
Продолжительность : 22 м.
Режим общего битрейта : Переменный
Общий поток : 6381 Кбит/сек
Видео
Идентификатор : 224 (0xE0)
Формат : MPEG Video
Версия формата : Version 2
Профиль формата : [email protected]
Параметр BVOP формата : Да
Параметр матрицы формата : Выборочная
Параметр GOP формата : M=3, N=15
Продолжительность : 22 м.
Вид битрейта : Переменный
Битрейт : 5614 Кбит/сек
Максимальный битрейт : 9800 Кбит/сек
Ширина : 720 пикселей
Высота : 480 пикселей
Соотношение сторон : 4:3
Частота кадров : 29,970 кадров/сек
Стандарт вещания : NTSC
Цветовое пространство : YUV
Субдискретизация насыщенности : 4:2:0
Битовая глубина : 8 бит
Тип развёртки : Чересстрочная
Порядок развёртки : Верхнее поле первое
Метод сжатия : С потерями
Бит/(Пиксели*Кадры) : 0.542
Размер потока : 901 Мбайт (88%)
Аудио #1
Идентификатор : 189 (0xBD)-128 (0x80)
Формат : AC-3
Формат/Информация : Audio Coding 3
Расширение режима : CM (complete main)
Режим смешивания : DVD-Video
Продолжительность : 22 м.
Вид битрейта : Постоянный
Битрейт : 192 Кбит/сек
Каналы : 2 канала
Расположение каналов : Front: L R
Частота : 48,0 КГц
Битовая глубина : 16 бит
Метод сжатия : С потерями
Задержка видео : -444 мс.
Размер потока : 30,8 Мбайт (3%)
Аудио #2
Идентификатор : 189 (0xBD)-129 (0x81)
Формат : AC-3
Формат/Информация : Audio Coding 3
Расширение режима : CM (complete main)
Режим смешивания : DVD-Video
Продолжительность : 22 м.
Вид битрейта : Постоянный
Битрейт : 448 Кбит/сек
Каналы : 6 каналов
Расположение каналов : Front: L C R, Side: L R, LFE
Частота : 48,0 КГц
Битовая глубина : 16 бит
Метод сжатия : С потерями
Задержка видео : -444 мс.
Размер потока : 71,9 Мбайт (7%)
Меню
Общее
Полное имя : D:\Razdaca\Tina Turner - Simply The Best\VIDEO_TS\VTS_01_3.VOB
Формат : MPEG-PS
Размер файла : 1024 Мбайт
Продолжительность : 22 м.
Режим общего битрейта : Переменный
Общий поток : 6377 Кбит/сек
Видео
Идентификатор : 224 (0xE0)
Формат : MPEG Video
Версия формата : Version 2
Профиль формата : [email protected]
Параметр BVOP формата : Да
Параметр матрицы формата : Выборочная
Параметр GOP формата : M=3, N=15
Продолжительность : 22 м.
Вид битрейта : Переменный
Битрейт : 5610 Кбит/сек
Максимальный битрейт : 9800 Кбит/сек
Ширина : 720 пикселей
Высота : 480 пикселей
Соотношение сторон : 4:3
Частота кадров : 29,970 кадров/сек
Стандарт вещания : NTSC
Цветовое пространство : YUV
Субдискретизация насыщенности : 4:2:0
Битовая глубина : 8 бит
Тип развёртки : Чересстрочная
Порядок развёртки : Верхнее поле первое
Метод сжатия : С потерями
Бит/(Пиксели*Кадры) : 0.542
Размер потока : 901 Мбайт (88%)
Аудио #1
Идентификатор : 189 (0xBD)-128 (0x80)
Формат : AC-3
Формат/Информация : Audio Coding 3
Расширение режима : CM (complete main)
Режим смешивания : DVD-Video
Продолжительность : 22 м.
Вид битрейта : Постоянный
Битрейт : 192 Кбит/сек
Каналы : 2 канала
Расположение каналов : Front: L R
Частота : 48,0 КГц
Битовая глубина : 16 бит
Метод сжатия : С потерями
Задержка видео : -350 мс.
Размер потока : 30,8 Мбайт (3%)
Аудио #2
Идентификатор : 189 (0xBD)-129 (0x81)
Формат : AC-3
Формат/Информация : Audio Coding 3
Расширение режима : CM (complete main)
Режим смешивания : DVD-Video
Продолжительность : 22 м.
Вид битрейта : Постоянный
Битрейт : 448 Кбит/сек
Каналы : 6 каналов
Расположение каналов : Front: L C R, Side: L R, LFE
Частота : 48,0 КГц
Битовая глубина : 16 бит
Метод сжатия : С потерями
Задержка видео : -382 мс.
Размер потока : 71,9 Мбайт (7%)
Меню
Общее
Полное имя : D:\Razdaca\Tina Turner - Simply The Best\VIDEO_TS\VTS_01_4.VOB
Формат : MPEG-PS
Размер файла : 1021 Мбайт
Продолжительность : 23 м.
Режим общего битрейта : Переменный
Общий поток : 6068 Кбит/сек
Видео
Идентификатор : 224 (0xE0)
Формат : MPEG Video
Версия формата : Version 2
Профиль формата : [email protected]
Параметр BVOP формата : Да
Параметр матрицы формата : Выборочная
Параметр GOP формата : M=3, N=15
Продолжительность : 23 м.
Вид битрейта : Переменный
Битрейт : 5307 Кбит/сек
Максимальный битрейт : 9800 Кбит/сек
Ширина : 720 пикселей
Высота : 480 пикселей
Соотношение сторон : 4:3
Частота кадров : 29,970 кадров/сек
Стандарт вещания : NTSC
Цветовое пространство : YUV
Субдискретизация насыщенности : 4:2:0
Битовая глубина : 8 бит
Тип развёртки : Чересстрочная
Порядок развёртки : Верхнее поле первое
Метод сжатия : С потерями
Бит/(Пиксели*Кадры) : 0.512
Размер потока : 893 Мбайт (87%)
Аудио #1
Идентификатор : 189 (0xBD)-128 (0x80)
Формат : AC-3
Формат/Информация : Audio Coding 3
Расширение режима : CM (complete main)
Режим смешивания : DVD-Video
Продолжительность : 23 м.
Вид битрейта : Постоянный
Битрейт : 192 Кбит/сек
Каналы : 2 канала
Расположение каналов : Front: L R
Частота : 48,0 КГц
Битовая глубина : 16 бит
Метод сжатия : С потерями
Задержка видео : -521 мс.
Размер потока : 32,3 Мбайт (3%)
Аудио #2
Идентификатор : 189 (0xBD)-129 (0x81)
Формат : AC-3
Формат/Информация : Audio Coding 3
Расширение режима : CM (complete main)
Режим смешивания : DVD-Video
Продолжительность : 23 м.
Вид битрейта : Постоянный
Битрейт : 448 Кбит/сек
Каналы : 6 каналов
Расположение каналов : Front: L C R, Side: L R, LFE
Частота : 48,0 КГц
Битовая глубина : 16 бит
Метод сжатия : С потерями
Задержка видео : -553 мс.
Размер потока : 75,4 Мбайт (7%)
Меню
Общее
Полное имя : D:\Razdaca\Tina Turner - Simply The Best\VIDEO_TS\VTS_02_0.BUP
Формат : DVD Video
Профиль формата : Program
Размер файла : 18,0 Кбайт
Продолжительность : 29 с.
Режим общего битрейта : Переменный
Общий поток : 4998 бит/сек
Видео
Идентификатор : 224 (0xE0)
Формат : MPEG Video
Версия формата : Version 2
Продолжительность : 29 с.
Вид битрейта : Переменный
Ширина : 720 пикселей
Высота : 480 пикселей
Соотношение сторон : 4:3
Частота кадров : 29,970 кадров/сек
Стандарт вещания : NTSC
Метод сжатия : С потерями
Аудио
Идентификатор : 128 (0x80)
Формат : AC-3
Формат/Информация : Audio Coding 3
Продолжительность : 29 с.
Каналы : 2 канала
Частота : 48,0 КГц
Метод сжатия : С потерями
Язык : English
Меню
Продолжительность : 29 с.
00:00:00.000 : Chapter 1
00:00:28.500 : Chapter 2
List (Audio) : 0
Общее
Полное имя : D:\Razdaca\Tina Turner - Simply The Best\VIDEO_TS\VTS_02_0.IFO
Формат : DVD Video
Профиль формата : Program
Размер файла : 18,0 Кбайт
Продолжительность : 29 с.
Режим общего битрейта : Переменный
Общий поток : 4998 бит/сек
Видео
Идентификатор : 224 (0xE0)
Формат : MPEG Video
Версия формата : Version 2
Продолжительность : 29 с.
Вид битрейта : Переменный
Ширина : 720 пикселей
Высота : 480 пикселей
Соотношение сторон : 4:3
Частота кадров : 29,970 кадров/сек
Стандарт вещания : NTSC
Метод сжатия : С потерями
Аудио
Идентификатор : 128 (0x80)
Формат : AC-3
Формат/Информация : Audio Coding 3
Продолжительность : 29 с.
Каналы : 2 канала
Частота : 48,0 КГц
Метод сжатия : С потерями
Язык : English
Меню
Продолжительность : 29 с.
00:00:00.000 : Chapter 1
00:00:28.500 : Chapter 2
List (Audio) : 0
Общее
Полное имя : D:\Razdaca\Tina Turner - Simply The Best\VIDEO_TS\VTS_02_0.VOB
Формат : MPEG-PS
Размер файла : 30,0 Кбайт
Меню
Общее
Полное имя : D:\Razdaca\Tina Turner - Simply The Best\VIDEO_TS\VTS_02_1.VOB
Формат : MPEG-PS
Размер файла : 29,3 Мбайт
Продолжительность : 29 с.
Общий поток : 8328 Кбит/сек
Видео
Идентификатор : 224 (0xE0)
Формат : MPEG Video
Версия формата : Version 2
Профиль формата : [email protected]
Параметр BVOP формата : Да
Параметр матрицы формата : По умолчанию
Параметр GOP формата : M=2, N=15
Продолжительность : 29 с.
Битрейт : 8000 Кбит/сек
Ширина : 720 пикселей
Высота : 480 пикселей
Соотношение сторон : 4:3
Частота кадров : 29,970 кадров/сек
Стандарт вещания : NTSC
Цветовое пространство : YUV
Субдискретизация насыщенности : 4:2:0
Битовая глубина : 8 бит
Тип развёртки : Чересстрочная
Порядок развёртки : Верхнее поле первое
Метод сжатия : С потерями
Бит/(Пиксели*Кадры) : 0.772
Размер потока : 28,1 Мбайт (96%)
Основные цвета : SMPTE 170M
Характеристики трансфера : SMPTE 170M
Коэффициенты матрицы : SMPTE 170M
Аудио
Идентификатор : 189 (0xBD)-128 (0x80)
Формат : AC-3
Формат/Информация : Audio Coding 3
Профиль формата : Dolby Digital
Расширение режима : CM (complete main)
Режим смешивания : DVD-Video
Продолжительность : 29 с.
Вид битрейта : Постоянный
Битрейт : 192 Кбит/сек
Каналы : 2 канала
Расположение каналов : Front: L R
Частота : 48,0 КГц
Битовая глубина : 16 бит
Метод сжатия : С потерями
Размер потока : 692 Кбайт (2%)
Меню

[4.08 GB] Скачать / Download